Miss_Brasil_29-09-2012.mkv

Size 1.823 GB   0 seeders     Added 2012-10-01 03:42:24

Stream torrent
Starting‥ You need BitLord! Get it from BitLord.com
To download or stream you need BitLord. Visit them at BitLord.com
Miss Brasil 2012 (standard definition - SD)


Complete name                            : Miss_Brasil_29-09-2012.mkv
Format                                   : Matroska
Format version                           : Version 2
File size                                : 1.70 GiB
Duration                                 : 1h 13mn
Overall bit rate mode                    : Variável
Overall bit rate                         : 3 293 Kbps
Writing application                      : Lavf52.64.2
Writing library                          : Lavf52.64.2

Vídeo
ID                                       : 1
Format                                   : MPEG Video
Format version                           : Version 2
Format profile                           : Main@Main
Format settings, BVOP                    : Não
Format settings, Matrix                  : Personalizada
Codec ID                                 : V_MPEG2
Codec ID/Info                            : MPEG 1 or 2 Video
Bit rate mode                            : Variável
Bit rate                                 : 2 972 Kbps
Maximum bit rate                         : 15.0 Mbps
Width                                    : 640 pixels
Height                                   : 480 pixels
Display aspect ratio                     : 4:3
Frame rate mode                          : Variável
Original frame rate                      : 29.970 fps
Color space                              : YUV
Chroma subsampling                       : 4:2:0
Bit depth                                : 8 bits
Scan type                                : Entrelaçado
Scan order                               : Primeiro a área superior
Default                                  : Sim
Forced                                   : Não

Áudio #1
ID                                       : 2
Format                                   : MPEG Audio
Format version                           : Version 1
Format profile                           : Layer 2
Codec ID                                 : A_MPEG/L2
Codec ID/Hint                            : MP2
Duration                                 : 1h 13mn
Bit rate mode                            : Constante
Bit rate                                 : 128 Kbps
Channel(s)                               : 1 canal
Sampling rate                            : 48.0 KHz
Delay relative to video                  : -1mn 5s
Stream size                              : 67.6 MiB (4%)
Language                                 : Português
Default                                  : Sim
Forced                                   : Não

Áudio #2
ID                                       : 3
Format                                   : MPEG Audio
Format version                           : Version 1
Format profile                           : Layer 2
Codec ID                                 : A_MPEG/L2
Codec ID/Hint                            : MP2
Duration                                 : 1h 13mn
Bit rate mode                            : Constante
Bit rate                                 : 128 Kbps
Channel(s)                               : 1 canal
Sampling rate                            : 48.0 KHz
Delay relative to video                  : -1mn 5s
Stream size                              : 67.6 MiB (4%)
Language                                 : Português
Default                                  : Não
Forced                                   : Não

		
Miss_Brasil_29-09-2012.mkv 1.823 GB
Gathering some info...

Register and log in Isohunt and see no captcha anymore!

4000 symbols left
Hash 00992E2577AB7E70314B38F3ECC4015CC06770C2