imdb
rating

7.4
Looper

Looper (2012)

Action, Science Fiction, Thriller

Full description

Looper DVDRiP XViD iNT-CoRa

Size 722.621 MB   0 seeders     Added 2012-10-01 20:08:16

Stream torrent
Starting‥ You need BitLord! Get it from 1BitLord.com
5.7
To download or stream you need BitLord. Visit them at BitLord.com
\r\n\r\n\r\n\r\n\r\nFormat : MPEG-4 Visual\r\nFormat profile : Advanced Simple@L5\r\nFormat settings, BVOP : 1\r\nFormat settings, QPel : No\r\nFormat settings, GMC : No warppoints\r\nFormat settings, Matrix : Default (H.263)\r\nCodec ID : XVID\r\nCodec ID/Hint : XviD\r\nDuration : 1h 25mn\r\nBit rate : 1 325 Kbps\r\nWidth : 640 pixels\r\nHeight : 264 pixels\r\nDisplay aspect ratio : 2.40:1\r\nFrame rate : 25.000 fps\r\nColor space : YUV\r\nChroma subsampling : 4:2:0\r\nBit depth : 8 bits\r\nScan type : Progressive\r\nCompression mode : Lossy\r\nBits/(Pixel*Frame) : 0.314\r\nStream size : 807 MiB (87%)\r\nWriting library : XviD 1.2.1 (UTC 2008-12-04)\r\n\r\nAudio\r\nID : 1\r\nFormat : AC-3\r\nFormat/Info : Audio Coding 3\r\nMode extension : CM (complete main)\r\nCodec ID : 2000\r\nDuration : 1h 25mn\r\nBit rate mode : Constant\r\nBit rate : 192 Kbps\r\nChannel(s) : 2 channels\r\nChannel positions : Front: L R\r\nSampling rate : 48.0 KHz\r\nBit depth : 16 bits\r\nCompression mode : Lossy\r\nStream size : 117 MiB (13%)\r\nAlignment : Aligned on interleaves\r\nInterleave, duration : 40 ms (1.00 video frame)\r\nInterleave, preload duration : 512 ms\r\n\r\n\r\n\r\n
Looper.DVDRiP.XViD.iNT-CoRa/Looper.2012.SWESUB.DVDRip.wmv 722.549 MB
Looper.DVDRiP.XViD.iNT-CoRa/Subtitle.srt 66.326 KB
Looper.DVDRiP.XViD.iNT-CoRa/info.nfo 5.075 KB
Gathering some info...

Register and log in Isohunt and see no captcha anymore!

4000 symbols left
Hash 6442fa1a67bbb3071fd92174d214cb4bf7aa5ed7

Related torrents for "Looper DVDRiP XViD iNT-CoRa"

Torrent search:

dvdrip 2012