imdb
rating

6.4
Won't Back Down

Won't Back Down (2012)

Drama

Full description

Wont Back Down DVDRiP XViD iNT-CoRa

Size 734.946 MB   0 seeders     Added 2012-10-01 20:32:07

Stream torrent
Starting‥ You need BitLord! Get it from BitLord.com
To download or stream you need BitLord. Visit them at BitLord.com
Format : MPEG-4 Visual
Format profile : Advanced Simple@L5
Format settings, BVOP : 1
Format settings, QPel : No
Format settings, GMC : No warppoints
Format settings, Matrix : Default (H.263)
Codec ID : XVID
Codec ID/Hint : XviD
Duration : 1h 25mn
Bit rate : 1 325 Kbps
Width : 640 pixels
Height : 264 pixels
Display aspect ratio : 2.40:1
Frame rate : 25.000 fps
Color space : YUV
Chroma subsampling : 4:2:0
Bit depth : 8 bits
Scan type : Progressive
Compression mode : Lossy
Bits/(Pixel*Frame) : 0.314
Stream size : 807 MiB (87%)
Writing library : XviD 1.2.1 (UTC 2008-12-04)

Audio
ID : 1
Format : AC-3
Format/Info : Audio Coding 3
Mode extension : CM (complete main)
Codec ID : 2000
Duration : 1h 25mn
Bit rate mode : Constant
Bit rate : 192 Kbps
Channel(s) : 2 channels
Channel positions : Front: L R
Sampling rate : 48.0 KHz
Bit depth : 16 bits
Compression mode : Lossy
Stream size : 117 MiB (13%)
Alignment : Aligned on interleaves
Interleave, duration : 40 ms (1.00 video frame)
Interleave, preload duration : 512 ms
Wont Back Down.DVDRiP.XViD.iNT-CoRa/subtitles/English/subtitles.srt 47.548 KB
Wont Back Down.DVDRiP.XViD.iNT-CoRa/subtitles/NL/subtitles.srt 71.182 KB
Wont Back Down.DVDRiP.XViD.iNT-CoRa/subtitles/Polish/subtitles.srt 31.875 KB
Gathering some info...

Register and log in Isohunt and see no captcha anymore!

4000 symbols left
Hash 71255eda7105158a333337e1d179a066799b7a0b

Related torrents for "Wont Back Down DVDRiP XViD iNT-CoRa"

Torrent search:

dvdrip 2012