imdb
rating

5.6
A Guy Thing

A Guy Thing (2003)

Comedy, Romance

Full description
quality   x264 hd bd dvdrip fullhd h264

A.Guy.Thing.2003.720p.x264.Mp4.AAC.TSRG

Size 1.711 GB   1 seeders     Added 2012-10-02 18:13:12

Stream torrent
Starting‥ You need BitLord! Get it from BitLord.com
To download or stream you need BitLord. Visit them at BitLord.com






When he wakes up the morning after his bachelor party in bed with a strange woman, a man presumes he must have cheated on his fiancée. Guilt leads him to try to cover it up in the week before the wedding, high jinks ensue.

General
Complete name : A.Guy.Thing.2003.720p.x264.Mp4.AAC.TSRG
Format : MPEG-4
Format profile : Base Media / Version 2
Codec ID : mp42
File size : 1.57 GiB
Duration : 1h 41mn
Overall bit rate : 2 213 Kbps


Video
ID : 1
Format : AVC
Format/Info : Advanced Video Codec
Format profile : Main@L3.1
Format settings, CABAC : Yes
Format settings, ReFrames : 4 frames
Codec ID : avc1
Codec ID/Info : Advanced Video Coding
Duration : 1h 41mn
Bit rate mode : Variable
Bit rate : 2 112 Kbps
Width : 1 280 pixels
Height : 694 pixels
Display aspect ratio : 16:9
Frame rate mode : Variable
Frame rate : 23.976 fps
Minimum frame rate : 23.419 fps
Maximum frame rate : 24.390 fps
Resolution : 8 bits
Colorimetry : 4:2:0
Scan type : Progressive
Bits/(Pixel*Frame) : 0.099
Stream size : 1.50 GiB (95%)
Writing library : x264 core 120

Audio
ID : 2
Format : AAC
Format/Info : Advanced Audio Codec
Format version : Version 4
Format profile : LC
Format settings, SBR : No
Codec ID : 40
Duration : 1h 41mn
Bit rate mode : Variable
Bit rate : 96.0 Kbps
Maximum bit rate : 182 Kbps
Channel(s) : 2 channels
Channel positions : L R
Sampling rate : 48.0 KHz
Stream size : 69.9 MiB (4%)


Sample Included: Yes
Screen Shots Included: Yes
Cover Included: Yes
Encoded By: Thunder
Source: BluRay






Playable Devices:

P.C.(my choice would be but not limited to vlc player)
Smartphones
PS3

Respects goes out to all, you know who you are.
A.Guy.Thing.1.png 1.236 MB
A.Guy.Thing.2.png 502.354 KB
A.Guy.Thing.2003.720p.x264.Mp4.AAC.TSRG.mp4 1.691 GB
Gathering some info...

Register and log in Isohunt and see no captcha anymore!

4000 symbols left
Hash 2DCD3782BA1FAADF533F0DB0FFC56D8CE65336FE

Related torrents for "A.Guy.Thing.2003.720p.x264.Mp4.AAC.TSRG"

Torrent search:

2003 x264 hd