imdb
rating

7.0
Frankenweenie

Frankenweenie (2012)

Animation, Comedy, Family

Full description
quality   screener dvdrip dvd bd

Frankenweenie 2012 DVDRip x264 NOGRP

Size 719.646 MB   0 seeders     Added 2012-10-03 05:54:51

Stream torrent
Starting‥ You need BitLord! Get it from BitLord.com
4.6
To download or stream you need BitLord. Visit them at BitLord.com
Video
ID                                       : 0
Format                                   : MPEG-4 Visual
Format profile                           : Advanced Simple@L5
Format settings, BVOP                    : 1
Format settings, QPel                    : No
Format settings, GMC                     : No warppoints
Format settings, Matrix                  : Default (H.263)
Codec ID                                 : XVID
Codec ID/Hint                            : XviD
Duration                                 : 1h 30mn
Bit rate                                 : 1 396 Kbps
Width                                    : 640 pixels
Height                                   : 240 pixels
Display aspect ratio                     : 2.667
Frame rate                               : 29.970 fps
Color space                              : YUV
Chroma subsampling                       : 4:2:0
Bit depth                                : 8 bits
Scan type                                : Progressive
Compression mode                         : Lossy
Bits/(Pixel*Frame)                       : 0.303
Stream size                              : 904 MiB (87%)
Writing library                          : XviD 1.2.1 (UTC 2008-12-04)

Audio
ID                                       : 1
Format                                   : AC-3
Format/Info                              : Audio Coding 3
Mode extension                           : CM (complete main)
Codec ID                                 : 2000
Duration                                 : 1h 30mn
Bit rate mode                            : Constant
Bit rate                                 : 192 Kbps
Channel(s)                               : 2 channels
Channel positions                        : Front: L R
Sampling rate                            : 48.0 KHz
Bit depth                                : 16 bits
Compression mode                         : Lossy
Stream size                              : 124 MiB (12%)
Alignment                                : Aligned on interleaves
Interleave, duration                     : 33 ms (1.00 video frame)
Interleave, preload duration             : 512 ms
Frankenweenie 2012 DVDRip x264 NOGRP/subtitles/English/subtitles.srt 47.548 KB
Frankenweenie 2012 DVDRip x264 NOGRP/subtitles/NL/subtitles.srt 71.182 KB
Frankenweenie 2012 DVDRip x264 NOGRP/subtitles/Polish/subtitles.srt 31.875 KB
Gathering some info...

Register and log in Isohunt and see no captcha anymore!

4000 symbols left
Hash 17c58f94a6927bdd958ca074b77f6ed08b118375

Related torrents for "Frankenweenie 2012 DVDRip x264 NOGRP"

Torrent search:

dvdrip x264 2012