imdb
rating

7.2
Pitch Perfect

Pitch Perfect (2012)

Comedy, Music, Romance

Full description
quality   cam dvdrip dvd telesync x264

Pitch Perfect 2012 DVDRip XviD S4A

Size 722.622 MB   0 seeders     Added 2012-10-03 23:23:23

Stream torrent
Starting‥ You need BitLord! Get it from BitLord.com
To download or stream you need BitLord. Visit them at BitLord.com
\r\n\r\n\r\n\r\n\r\n\r\nVideo\r\nID                               : 0\r\nFormat                           : MPEG-4 Visual\r\nFormat profile                   : Advanced Simple@L5\r\nFormat settings, BVOP            : 2\r\nFormat settings, QPel            : No\r\nFormat settings, GMC             : No warppoints\r\nFormat settings, Matrix          : Default (H.263)\r\nCodec ID                         : XVID\r\nCodec ID/Hint                    : XviD\r\nDuration                         : 1h 28mn\r\nBit rate                         : 945 Kbps\r\nWidth                            : 720 pixels\r\nHeight                           : 304 pixels\r\nDisplay aspect ratio             : 2.35:1\r\nFrame rate                       : 25.000 fps\r\nColor space                      : YUV\r\nChroma subsampling               : 4:2:0\r\nBit depth                        : 8 bits\r\nScan type                        : Progressive\r\nCompression mode                 : Lossy\r\nBits/(Pixel*Frame)               : 0.173\r\nStream size                      : 598 MiB (67%)\r\nWriting library                  : XviD 1.2.1 (UTC 2008-12-04)\r\n\r\nAudio\r\nID                               : 1\r\nFormat                           : AC-3\r\nFormat/Info                      : Audio Coding 3\r\nMode extension                   : CM (complete main)\r\nCodec ID                         : 2000\r\nDuration                         : 1h 28mn\r\nBit rate mode                    : Constant\r\nBit rate                         : 448 Kbps\r\nChannel(s)                       : 6 channels\r\nChannel positions                : Front: L C R, Side: L R, LFE\r\nSampling rate                    : 48.0 KHz\r\nBit depth                        : 16 bits\r\nCompression mode                 : Lossy\r\nStream size                      : 283 MiB (32%)\r\nAlignment                        : Aligned on interleaves\r\nInterleave, duration             : 64 ms (1.60 video frames)\r\nInterleave, preload duration     : 192 ms\r\nTitle                            : ps2 - [2] English_new\r\n\r\n\r\n
Pitch Perfect 2012 DVDRip XviD S4A/Pitch Perfect DVDRip XviD S4A.wmv 722.549 MB
Pitch Perfect 2012 DVDRip XviD S4A/Subtitle.srt 66.326 KB
Pitch Perfect 2012 DVDRip XviD S4A/Readme.txt 3.303 KB
Gathering some info...

Register and log in Isohunt and see no captcha anymore!

4000 symbols left
Hash 37355dff8738e398ee4c2fde6b8b4498fd496663

Related torrents for "Pitch Perfect 2012 DVDRip XviD S4A"

Torrent search:

dvdrip 2012