imdb
rating

7.3
Vegas

Vegas (2012)

Drama

Full description

Vegas S01E02 720p WEB-DL DD5 1 H 264-KiNGS

Size 1.466 GB   0 seeders     Added 2012-10-03 23:42:12

Stream torrent
Starting‥ You need BitLord! Get it from 1BitLord.com
To download or stream you need BitLord. Visit them at BitLord.com
-

      the fast  and The Hottest Private Tracker on the net

(((--Registration is Open!!--)))

Please Seed back to make the speed Faster!!!

and don't forget to visit ......


 ............ NFO .............
-General
Unique ID                                : 190773361728573434350301064621638043456 (0x8F859CED3441B331B0F8CB3B46244740)
Complete name                            : D:iTunesTV ShowsVegasVegas.S01E02.720p.WEB-DL.DD5.1.H.264-KiNGSVegas.S01E02.720p.WEB-DL.DD5.1.H.264-KiNGS.mkv
Format                                   : Matroska
Format version                           : Version 2
File size                                : 1.36 GiB
Duration                                 : 43mn 46s
Overall bit rate                         : 4 464 Kbps
Encoded date                             : UTC 2012-10-03 08:15:56
Writing application                      : mkvmerge v5.8.0 ('No Sleep / Pillow') built on Sep  2 2012 15:37:04
Writing library                          : libebml v1.2.3 + libmatroska v1.3.0

Video
ID                                       : 1
Format                                   : AVC
Format/Info                              : Advanced Video Codec
Format profile                           : High@L3.1
Format settings, CABAC                   : No
Format settings, ReFrames                : 2 frames
Codec ID                                 : V_MPEG4/ISO/AVC
Duration                                 : 43mn 46s
Bit rate                                 : 3 991 Kbps
Width                                    : 1 280 pixels
Height                                   : 720 pixels
Display aspect ratio                     : 16:9
Frame rate mode                          : Constant
Frame rate                               : 23.976 fps
Color space                              : YUV
Chroma subsampling                       : 4:2:0
Bit depth                                : 8 bits
Scan type                                : Progressive
Bits/(Pixel*Frame)                       : 0.181
Stream size                              : 1.22 GiB (89%)
Language                                 : English
Default                                  : Yes
Forced                                   : No
Color primaries                          : BT.709
Transfer characteristics                 : BT.709
Matrix coefficients                      : BT.709

Audio
ID                                       : 2
Format                                   : AC-3
Format/Info                              : Audio Coding 3
Mode extension                           : CM (complete main)
Format settings, Endianness              : Big
Codec ID                                 : A_AC3
Duration                                 : 43mn 46s
Bit rate mode                            : Constant
Bit rate                                 : 384 Kbps
Channel(s)                               : 6 channels
Channel positions                        : Front: L C R, Side: L R, LFE
Sampling rate                            : 48.0 KHz
Bit depth                                : 16 bits
Compression mode                         : Lossy
Stream size                              : 120 MiB (9%)
Language                                 : English
Default                                  : Yes
Forced                                   : No		
[ www.Speed.Cd ] - Vegas.S01E02.720p.WEB-DL.DD5.1.H.264-KiNGS/Vegas.S01E02.720p.WEB-DL.DD5.1.H.264-KiNGS.mkv 1.466 GB
[ www.Speed.Cd ] - Vegas.S01E02.720p.WEB-DL.DD5.1.H.264-KiNGS/Vegas.S01E02.720p.WEB-DL.DD5.1.H.264-KiNGS.nfo 3.162 KB
[ www.Speed.Cd ] - Vegas.S01E02.720p.WEB-DL.DD5.1.H.264-KiNGS/www.speed.cd read me .txt 47 B
Gathering some info...

Register and log in Isohunt and see no captcha anymore!

4000 symbols left
Hash 61cbf67cbe779f6b621569d54555e51c24364ca0

Related torrents for "Vegas S01E02 720p WEB-DL DD5 1 H 264-KiNGS"

Torrent search:

season 01 episode 02 hd web-dl