Most Wanted

Most Wanted (1976)

Crime, Drama

Full description

Madagascar 3 Europes Most Wanted 2012 DVDRIP XVID AC3 5 1-26K

Size 1.73 GB   14 seeders     Added 2012-10-04 02:31:51

Stream torrent
Starting‥ You need BitLord! Get it from 1BitLord.com
To download or stream you need BitLord. Visit them at BitLord.com
[img]image[/img]
[code]

Madagascar.3.Europes.Most.Wanted.2012.DVDRIP.XVID.AC3.5.1-26K

http://www.imdb.com/title/tt1277953/

Plot:
Alex, Marty, Gloria and Melman are still fighting to get home to their beloved Big Apple. Their journey takes them 

through Europe where they find the perfect cover: a traveling circus, which they reinvent - Madagascar style.

Sources - audio-dvdr....Thanks :P
 VIDEO-dvdr.....Thanks :P
Video
ID : 0
Format : MPEG-4 Visual
Format profile : Simple@L5
Format settings, BVOP : No
Format settings, QPel : No
Format settings, GMC : No warppoints
Format settings, Matrix : Default (H.263)
Codec ID : XVID
Codec ID/Hint : XviD
Duration : 1h 33mn
Bit rate : 1 995 Kbps
Width : 720 pixels
Height : 384 pixels
Display aspect ratio : 1.85:1
Frame rate : 23.976 fps
Color space : YUV
Chroma subsampling : 4:2:0
Bit depth : 8 bits
Scan type : Progressive
Compression mode : Lossy
Bits/(Pixel*Frame) : 0.301
Stream size : 1.30 GiB (82%)
Writing library : XviD 64

Audio
ID : 1
Format : AC-3
Format/Info : Audio Coding 3
Codec ID : 2000
Duration : 1h 33mn
Bit rate mode : Constant
Bit rate : 448 Kbps
Channel(s) : 6 channels
Sampling rate : 48.0 KHz
Compression mode : Lossy
Stream size : 299 MiB (18%)
Alignment : Aligned on interleaves
Interleave, duration : 5604855 ms (134 382.00 video frames)

Notes -
enjoy

[/code]

Screens:
[IMG]image[/IMG]
[IMG]image[/IMG]
[IMG]image[/IMG]
[IMG]image[/IMG]
[IMG]image[/IMG]
[IMG]image[/IMG]
[IMG]image[/IMG]

Greetz:
XtremeEncode|FYA|ILLUMANTI|CM8|RX|VISION|HDSCENE|xTriLL|DTRG|CRYS|REMIXHD|BIDA|RX|REFILL|INSPiRAL|AXED|HOPE|

Anonymous|GooN|NOIR|Blackjesus|Gabroo Punjab Deh|UNiQUE|DQ1|RESiSTANCE|HS|LEGION

Special thank you to MEGGAFAST for the support!!!

To all the people who have helped me you know who you are

Anything to offer email us @: 26k@hushmail.me
Madagascar.3.Europes.Most.Wanted.2012.DVDRIP.XVID.AC3.5.1-26K.avi 1.715 GB
Madagascar.3.Europes.Most.Wanted.2012.DVDRIP.XVID.AC3.5.1-26K.nfo 9.833 KB
Meggafast.com.txt 124 B
Gathering some info...

Register and log in Isohunt and see no captcha anymore!

4000 symbols left
Hash 2F816F33D72FD4F776E49D0698504E722B148C27

Related torrents for "Madagascar 3 Europes Most Wanted 2012 DVDRIP XVID AC3 5 1-26K"

Torrent search:

dvdrip 2012