Dangerous

Dangerous (2007)

Drama

Full description

Aziz Ansari - Dangerously Delicious (2012) {ipod, psp, mp4, andr

Size 139.874 MB   13 seeders     Added 2012-10-04 16:54:08

Stream torrent
Starting‥ You need BitLord! Get it from BitLord.com
To download or stream you need BitLord. Visit them at BitLord.com
Compatible for mobile devices, video @ 200kbps and audio at 96kbps, perfect for watching and listening to comedy on the go.

Source is the HD version that is available here on TPB. 
http://thepiratebay.se/torrent/7123181/Aziz_Ansari_-_Dangerously_Delicious_HD


Format                                   : MPEG-4
Format profile                           : Base Media
Codec ID                                 : isom
File size                                : 133 MiB
Duration                                 : 1h 1mn
Overall bit rate                         : 303 Kbps
Writing application                      : Lavf54.6.100

Video
ID                                       : 1
Format                                   : AVC
Format/Info                              : Advanced Video Codec
Format profile                           : Baseline@L2.1
Format settings, CABAC                   : No
Format settings, ReFrames                : 2 frames
Codec ID                                 : avc1
Codec ID/Info                            : Advanced Video Coding
Duration                                 : 1h 1mn
Bit rate                                 : 200 Kbps
Width                                    : 480 pixels
Height                                   : 270 pixels
Display aspect ratio                     : 16:9
Frame rate mode                          : Constant
Frame rate                               : 29.970 fps
Color space                              : YUV
Chroma subsampling                       : 4:2:0
Bit depth                                : 8 bits
Scan type                                : Progressive
Bits/(Pixel*Frame)                       : 0.051
Stream size                              : 88.1 MiB (66%)
Writing library                          : x264 core 120 r2164 da19765
Encoding settings                        : cabac=0 / ref=2 / deblock=1:0:0 / analyse=0x1:0x111 / me=hex / subme=6 / psy=1 / psy_rd=1.00:0.00 / mixed_ref=1 / me_range=16 / chroma_me=1 / trellis=1 / 8x8dct=0 / cqm=0 / deadzone=21,11 / fast_pskip=1 / chroma_qp_offset=-2 / threads=6 / sliced_threads=0 / nr=0 / decimate=1 / interlaced=0 / bluray_compat=0 / constrained_intra=0 / bframes=0 / weightp=0 / keyint=250 / keyint_min=25 / scenecut=40 / intra_refresh=0 / rc_lookahead=30 / rc=2pass / mbtree=1 / bitrate=200 / ratetol=1.0 / qcomp=0.60 / qpmin=0 / qpmax=69 / qpstep=4 / cplxblur=20.0 / qblur=0.5 / ip_ratio=1.40 / aq=1:1.00
Language                                 : English

Audio
ID                                       : 2
Format                                   : AAC
Format/Info                              : Advanced Audio Codec
Format profile                           : LC
Codec ID                                 : 40
Duration                                 : 1h 1mn
Duration_LastFrame                       : -9ms
Bit rate mode                            : Constant
Bit rate                                 : 96.0 Kbps
Channel(s)                               : 2 channels
Channel positions                        : Front: L R
Sampling rate                            : 48.0 KHz
Compression mode                         : Lossy
Stream size                              : 42.3 MiB (32%)
Language                                 : English		
Aziz Ansari - Dangerously Delicious (2012) {ipod, psp, mp4, android, mobile} [cokekoala].mp4 139.874 MB
Gathering some info...

Register and log in Isohunt and see no captcha anymore!

4000 symbols left
Hash 82E0C3EDC39A6937E2EE644053C59C1CC91BAC60

Related torrents for "Aziz Ansari - Dangerously Delicious (2012) {ipod, psp, mp4, andr"

Torrent search:

2012