imdb
rating

7.1
Hotel Transylvania

Hotel Transylvania (2012)

Animation, Comedy, Fantasy, Family

Full description

Hotel Transylvania (2012) DVDRip XviD-KINGDOM

Size 727.834 MB   0 seeders     Added 2012-10-04 21:49:07

Stream torrent
Starting‥ You need BitLord! Get it from BitLord.com
To download or stream you need BitLord. Visit them at BitLord.com
Hotel Transylvania (2012) DVDRip XviD-KINGDOM\r\n\r\n\r\nFormat                                   : AVI\r\nFormat/Info                              : Audio Video Interleave\r\nFile size                                : 694 MiB\r\nDuration                                 : 91mn\r\nOverall bit rate                         : 841 Kbps\r\nWriting application                      : Lavf54.3.100\r\n\r\nVideo\r\nID                                       : 0\r\nFormat                                   : MPEG-4 Visual\r\nFormat profile                           : Simple@L3\r\nFormat settings, BVOP                    : No\r\nFormat settings, QPel                    : No\r\nFormat settings, GMC                     : No warppoints\r\nFormat settings, Matrix                  : Default (H.263)\r\nCodec ID                                 : XVID\r\nCodec ID/Hint                            : XviD\r\nDuration                                 : 1h 58mn\r\nBit rate                                 : 750 Kbps\r\nWidth                                    : 640 pixels\r\nHeight                                   : 272 pixels\r\nDisplay aspect ratio                     : 2.35:1\r\nFrame rate                               : 25.000 fps\r\nColor space                              : YUV\r\nChroma subsampling                       : 4:2:0\r\nBit depth                                : 8 bits\r\nScan type                                : Progressive\r\nCompression mode                         : Lossy\r\nBits/(Pixel*Frame)                       : 0.172\r\nStream size                              : 694 MiB (100%)\r\nWriting library                          : XviD 64\r\n\r\nAudio\r\nID                                       : 1\r\nFormat                                   : AC-3\r\nFormat/Info                              : Audio Coding 3\r\nMode extension                           : CM (complete main)\r\nFormat settings, Endianness              : Big\r\nCodec ID                                 : 2000\r\nDuration                                 : 91mn\r\nBit rate mode                            : Constant\r\nBit rate                                 : 80.0 Kbps\r\nChannel(s)                               : 2 channels\r\nChannel positions                        : Front: L R\r\nSampling rate                            : 48.0 KHz\r\nBit depth                                : 16 bits\r\nCompression mode                         : Lossy\r\nStream size                              : 67.0 MiB (10%)\r\nAlignment                                : Aligned on interleaves\r\nInterleave, duration                     : 32 ms (0.80 video frame)
Hotel Transylvania (2012) DVDRip XviD-KINGDOM.nfo 2.532 KB
Hotel Transylvania (2012) DVDRip XviD-KINGDOM/Hotel Transylvania (2012) DVDRip XviD-KINGDOM.rar 727.831 MB
Hotel Transylvania (2012) DVDRip XviD-KINGDOM/read.txt 736 B
Gathering some info...

Register and log in Isohunt and see no captcha anymore!

4000 symbols left
Hash 3A95CB02D65C740605115EFAE06F4FF6E616B48C

Related torrents for "Hotel Transylvania (2012) DVDRip XviD-KINGDOM"

Torrent search:

dvdrip 2012