H

H (1998)

Comedy

Full description

Revolution S01E03 720p WEB-DL DD5 1 H 264-CtrlHD

Size 1.445 GB   1 seeders     Added 2012-10-04 22:40:43

Stream torrent
Starting‥ You need BitLord! Get it from BitLord.com
To download or stream you need BitLord. Visit them at BitLord.com
-

      the fast  and The Hottest Private Tracker on the net

(((--Registration is Open!!--)))

Please Seed back to make the speed Faster!!!

and don't forget to visit ......


 ............ NFO .............
-General
Unique ID                        : 208874457528739107000806504054343233474 (0x9D23C1DA4C77C717A2CDBCC4A4EA6FC2)
Complete name                    : Revolution.S01E03.720p.WEB-DL.DD5.1.H.264-CtrlHDRevolution.S01E03.No.Quarter.720p.WEB-DL.DD5.1.H.264-CtrlHD.mkv
Format                           : Matroska
Format version                   : Version 2
File size                        : 1.35 GiB
Duration                         : 43mn 24s
Overall bit rate                 : 4 439 Kbps
Encoded date                     : UTC 2012-10-04 03:51:34
Writing application              : mkvmerge v5.8.0 ('No Sleep / Pillow') built on Sep  2 2012 15:37:04
Writing library                  : libebml v1.2.3 + libmatroska v1.3.0

Video
ID                               : 1
Format                           : AVC
Format/Info                      : Advanced Video Codec
Format profile                   : High@L3.1
Format settings, CABAC           : No
Format settings, ReFrames        : 2 frames
Codec ID                         : V_MPEG4/ISO/AVC
Duration                         : 43mn 24s
Bit rate                         : 3 966 Kbps
Width                            : 1 280 pixels
Height                           : 720 pixels
Display aspect ratio             : 16:9
Frame rate                       : 23.976 fps
Color space                      : YUV
Chroma subsampling               : 4:2:0
Bit depth                        : 8 bits
Scan type                        : Progressive
Bits/(Pixel*Frame)               : 0.180
Stream size                      : 1.20 GiB (89%)
Language                         : English
Color primaries                  : BT.709-5, BT.1361, IEC 61966-2-4, SMPTE RP177
Transfer characteristics         : BT.709-5, BT.1361
Matrix coefficients              : BT.709-5, BT.1361, IEC 61966-2-4 709, SMPTE RP177

Audio
ID                               : 2
Format                           : AC-3
Format/Info                      : Audio Coding 3
Mode extension                   : CM (complete main)
Codec ID                         : A_AC3
Duration                         : 43mn 24s
Bit rate mode                    : Constant
Bit rate                         : 384 Kbps
Channel(s)                       : 6 channels
Channel positions                : Front: L C R, Side: L R, LFE
Sampling rate                    : 48.0 KHz
Bit depth                        : 16 bits
Compression mode                 : Lossy
Stream size                      : 119 MiB (9%)
Language                         : English		
Revolution.S01E03.No.Quarter.720p.WEB-DL.DD5.1.H.264-CtrlHD.mkv 1.445 GB
Revolution.S01E03.No.Quarter.720p.WEB-DL.DD5.1.H.264-CtrlHD.nfo 5.158 KB
www.speed.cd read me .txt 47 B
Gathering some info...

Register and log in Isohunt and see no captcha anymore!

4000 symbols left
Hash 0DC4DE390116036DE271C447444FF6599DF32DAB

Related torrents for "Revolution S01E03 720p WEB-DL DD5 1 H 264-CtrlHD"

Torrent search:

season 01 hd episode 03 web-dl