Hemlock Society (2012) - 1CD - DVD Rip - [Xvid-MP3] avi

Size 726.553 MB   0 seeders     Added 2012-10-05 06:31:45

Stream torrent
Starting‥ You need BitLord! Get it from BitLord.com
To download or stream you need BitLord. Visit them at BitLord.com
Hemlock Society (2012) - 1CD - DVD Rip - [Xvid-MP3]

[IMG]image[/IMG]
[IMG]image[/IMG]
[IMG]image[/IMG]
[IMG]image[/IMG]
[COLOR=#556b2f]The movie is a strong insight into psychological dilemma about the primal existence of life. It reiterates the fact that ‘can you shock someone by letting her know that death is impending and inescapable.’ It is a dark comedy which successfully evokes an awareness of life. The comic element is used dexterously to bring out the fear of death. The protagonist Meghna (Koel Mallick), misses her mother, hums the songs of her favorite Sidhartha Roy numbers, blames the new lady in her father’s life, shaken by the dejection by her fiancé. Yet, as an escape route from the world of pain and suffering she goes to her father doctor to get prescribed sleeping pills. Ananda Kar (Parambrata) as the name suggests ‘make merry’ refrains her from ending her life. He comes with an unusual proposal of imparting her technical know how about committing suicide. He adds 'the training will save you from embarrassment if suicide becomes a vain attempt'. Ananda Kar is the founder of the Hemlock Society, that teaches aspirants how to successfully commit suicide. The names of the professors are also significant of the tricks they will teach to execute the end. The society is a film studio. Meghna assembles with all other suicide aspirants being addressed by the over-enthusiastic professors, trainlet, jhulan, dhamani, raktim, shikha, all specialists in different suicide methods. Meghna goes with him, leaving a goodbye message for her parents at her apartment door. Dr. Basu comes in search of his daughter, finds the note and shatters in grievance. Dr. Basu and Niharika start their search for Meghna and almost leave no stone unturned. Meanwhile at Hemlock Society, Meghna encounters with miscellaneous experiences related to humans lives and death. The three day workshop at the society makes her understand the importance of life and what difference her loss would mean to her near and dear ones. The metamorphosis of Meghna occurs when she realizes the miseries of other inmates and considers herself lucky. On the final day, Meghna confesses to Ananda that she wants to live and a vital reason which worked behind her changing of mind is that she had fallen in love with Ananda. Ananda informs her that he is suffering from 'Lymphocytopenia' a medical condition for which he would survive only for two more years. Meghna leaves Hemlock Society, sobbing and returns to her father. The very thought that someone near the cradle of death can ‘drink life to the lease’ in spite of complain and regret,Surprises her. She learns from Ananda, that Hemlock society is an institute that refrains people from ending their life by making them aware of the importance of life. Six months later, Meghna reconciles with Ananda while he is on a nursing home bed, after having a blood-transfusion. The film ends with a witty note where Meghna’s fiancé (Saheb Chatterjee), now a dejected soul and undoubtedly suicide aspirant, being taken to 'Hemlock Society'[/COLOR]
[IMG]image[/IMG]

[SIZE=5][COLOR=#2f4f4f]Koel Mullick as Meghna Sarkar
Parambrata Chatterjee as Ananda Kar
Rupa Ganguly as Niharika Basu (Meghna's Step Mother)
Deepankar De as Dr. Chittaranjan Basu (Meghna's Father)
Reeta Basu (Meghna's Mother)
Silajit Majumder
Saheb Chatterjee as Shantanu
Anindita Bose as Shreya
Biswajit Chakraborty
Soumitra Chatterjee as Col Samaresh Bagchi (Guest Appearance)
Sabitri Chatterjee as Jhulon Gupto (Guest Appearance)
Sabyasachi Chakraborty as Dhomoni Ghosh (Guest Appearance)
Srijit Mukherji (Guest Appearance)
Bratya Basu as Raktim Ganguly (Guest Appearance)
Barun Chanda as Trenlet Biswas (Guest Appearance)
Raj Chakraborty as Setu Venkataraman (Guest Appearance)
Akshay Kapoor as Invigilator/ Sign Language Interpreter
Sudeshna Roy as Shikha Goon (Guest Appearance)
Sohag Sen as Miss Cella Neous (Guest Appearance)
Priyanka Sarkar as Hiya (Guest Appearance)
Jeet (Special Appearance)
Surajit Pan (Special Appearance)[/COLOR][/SIZE]
[IMG]image[/IMG]
General
      Format : AVI
      Format/Info : Audio Video Interleave
      File size : 693 MiB
      Duration : 2h 18mn
      Overall bit rate : 699 Kbps
   Video #0
      ID : 0
      Format : MPEG-4 Visual
      Format profile : Advanced Simple@L5
      Format settings, BVOP : 2
      Format settings, QPel : No
      Format settings, GMC : No warppoints
      Format settings, Matrix : Default (H.263)
      Codec ID : XVID
      Codec ID/Hint : XviD
      Duration : 2h 18mn
      Bit rate : 629 Kbps
      Width : 608 pixels
      Height : 272 pixels
      Display aspect ratio : 2.25:1
      Frame rate : 23.976 fps
      Color space : YUV
      Chroma subsampling : 4:2:0
      Bit depth : 8 bits
      Scan type : Progressive
      Compression mode : Lossy
      Bits/(Pixel*Frame) : 0.159
      Stream size : 624 MiB (90%)
[IMG]image[/IMG]
 Audio #1
      ID : 1
      Format : MPEG Audio
      Format version : Version 2
      Format profile : Layer 3
      Mode : Joint stereo
      Mode extension : MS Stereo
      Codec ID : 55
      Codec ID/Hint : MP3
      Duration : 2h 18mn
      Bit rate mode : Constant
      Bit rate : 64.0 Kbps
      Channel(s) : 2 channels
      Sampling rate : 24.0 KHz
      Compression mode : Lossy
      Stream size : 63.5 MiB (9%)
[IMG]image[/IMG]
[IMG]image[/IMG]
[IMG]image[/IMG]
[IMG]image[/IMG]
[SIZE=5][COLOR="#006400"]Thumbnails[/COLOR][/SIZE]
[IMG]image[/IMG]
Hemlock Society (2012) - 1CD - DVD Rip - [Xvid-MP3].avi 726.553 MB
Gathering some info...

Register and log in Isohunt and see no captcha anymore!

4000 symbols left
Hash D1D1C5902C9DC3125C7331426E16B6F5CA990A7D

We have tons of cool stuff like this:

Torrent search:

2012