The Net

The Net (1998)

Action, Adventure

Full description

Makkhi - Thoda Hans Ke Full Video Song 1st on Net (Niliv) (TmrG)

Size 124.763 MB   0 seeders     Added 2012-10-06 00:20:30

Stream torrent
Starting‥ You need BitLord! Get it from BitLord.com
To download or stream you need BitLord. Visit them at BitLord.com
[img]image[/img]
[img]image[/img]
[img]image[/img]
[img]image[/img]
[img]image[/img]
[color=Black]Makkhi - Thoda Hans Ke Full Video Song 1st on Net (Niliv) (TmrG)[/color]
[img]image[/img]
[color=Blue] 
Complete name : Makkhi - Thoda Hans Ke Full Video Song 1st on Net (Niliv) (TmrG).mp4 
Format : MPEG-4 
Format profile : Base Media 
Codec ID : isom 
File size : 119 MiB 
Duration : 4mn 17s 
Overall bit rate mode : Variable 
Overall bit rate : 3 882 Kbps 
Writing application : Lavf52.32.0 
Video 
ID : 1 
Format : MPEG-4 Visual 
Format profile : Simple@L1 
Format settings, BVOP : No 
Format settings, QPel : No 
Format settings, GMC : No warppoints 
Format settings, Matrix : Default (H.263) 
Codec ID : 20 
Duration : 4mn 17s 
Bit rate : 3 749 Kbps 
Width : 1 280 pixels 
Height : 720 pixels 
Display aspect ratio : 16:9 
Frame rate mode : Constant 
Frame rate : 23.976 fps 
Color space : YUV 
Chroma subsampling : 4:2:0 
Bit depth : 8 bits 
Scan type : Progressive 
Compression mode : Lossy 
Bits/(Pixel*Frame) : 0.170 
Stream size : 115 MiB (97%) 
Writing library : Lavc52.22.3 
Audio 
ID : 2 
Format : AAC 
Format/Info : Advanced Audio Codec 
Format profile : LC 
Codec ID : 40 
Duration : 4mn 17s 
Bit rate mode : Variable 
Bit rate : 128 Kbps 
Channel(s) : 2 channels 
Channel positions : Front: L R 
Sampling rate : 44.1 KHz 
Compression mode : Lossy 
Stream size : 3.92 MiB (3%) [/color]
[img]image[/img]
[img]image[/img]
[img]image[/img]
[img]image[/img]
[img]image[/img]
[img]image[/img]
[img]image[/img]
[b][color=red]:-TO JOIN ‘TORRENT MAFIA RELEASE GROUP’ & TO CHECK ITS UPLOADS, CLICK BELOW:-[/color][/b]
[url=http://www.facebook.com/groups/torrentmafia/][img]image[/img][/url]
[img]image[/img]
[url]https://www.facebook.com/NiLiV.KumraoTmRg[/url]
[img]image[/img]
[img]image[/img]
[img]image[/img]
[img]image[/img]
[img]image[/img]
[img]image[/img]
[img]image[/img]
[img]image[/img]
Makkhi - Thoda Hans Ke Full Video Song 1st on Net (Niliv) (TmrG).mp4 124.763 MB
Torrent Downloaded From ExtraTorrent.com.txt 353 B
Torrent downloaded from Silvertorrent.org.txt 86 B
Gathering some info...

Register and log in Isohunt and see no captcha anymore!

4000 symbols left
Hash 78CE54BCDDB05E52F457B704BE18E91BF8391D45

Related torrents for "Makkhi - Thoda Hans Ke Full Video Song 1st on Net (Niliv) (TmrG)"