imdb
rating

5.2
Americano

Americano (2011)

Drama

Full description
quality   screener dvdrip hd bd

Americano 2011 DVDRIP XVID AC3.5.1-26K

Size 1.81 GB   0 seeders     Added 2012-10-06 01:53:16

Stream torrent
Starting‥ You need BitLord! Get it from 1BitLord.com
To download or stream you need BitLord. Visit them at BitLord.com
Americano.2011.DVDRIP.XVID.AC3.5.1-26K
 
http://www.imdb.com/title/tt1742023/

Plot:
A man who returns to Los Angeles to wrap up his mother's estate sets out in search of the mysterious woman named in her will.

Sources - audio-dvdr....Thanks :P
          VIDEO-dvdr.....Thanks :P
Video
ID                                       : 0
Format                                   : MPEG-4 Visual
Format profile                           : Simple@L5
Format settings, BVOP                    : No
Format settings, QPel                    : No
Format settings, GMC                     : No warppoints
Format settings, Matrix                  : Default (H.263)
Codec ID                                 : XVID
Codec ID/Hint                            : XviD
Duration                                 : 1h 46mn
Bit rate                                 : 1 844 Kbps
Width                                    : 720 pixels
Height                                   : 288 pixels
Display aspect ratio                     : 2.500
Frame rate                               : 29.970 fps
Color space                              : YUV
Chroma subsampling                       : 4:2:0
Bit depth                                : 8 bits
Scan type                                : Progressive
Compression mode                         : Lossy
Bits/(Pixel*Frame)                       : 0.297
Stream size                              : 1.37 GiB (82%)
Writing library                          : XviD 64

Audio
ID                                       : 1
Format                                   : AC-3
Format/Info                              : Audio Coding 3
Mode extension                           : CM (complete main)
Format settings, Endianness              : Big
Codec ID                                 : 2000
Duration                                 : 1h 46mn
Bit rate mode                            : Constant
Bit rate                                 : 384 Kbps
Channel(s)                               : 6 channels
Channel positions                        : Front: L C R, Side: L R, LFE
Sampling rate                            : 48.0 KHz
Bit depth                                : 16 bits
Compression mode                         : Lossy
Stream size                              : 292 MiB (17%)
Alignment                                : Aligned on interleaves
Interleave, duration                     : 64 ms (1.92 video frames)
Interleave, preload duration             : 192 ms
Title                                    : VTS_01_1 T80 3_2ch 384Kbps DELAY 0ms

Notes -
enjoy

[/code]

Screens:
[IMG]image[/IMG]
[IMG]image[/IMG]
[IMG]image[/IMG]
[IMG]image[/IMG]
[IMG]image[/IMG]
[IMG]image[/IMG]
[IMG]image[/IMG]
[IMG]image[/IMG]
[IMG]image[/IMG]

Greetz:
XtremeEncode|FYA|ILLUMANTI|CM8|RX|VISION|HDSCENE|xTriLL|DTRG|CRYS|REMIXHD|BIDA|RX|REFILL|INSPiRAL|AXED|HOPE|Anonymous|GooN|NOIR|Blackjesus|Gabroo Punjab Deh|UNiQUE|DQ1|RESiSTANCE|HS|LEGION

Special thank you to MEGGAFAST for the support!!!

To all the people who have helped me  you know who you are		
Americano.2011.DVDRIP.XVID.AC3.5.1-26K.avi 1.784 GB
Sample.avi 25.838 MB
Americano.2011.DVDRIP.XVID.AC3.5.1-26K.nfo 10.161 KB
Gathering some info...

Register and log in Isohunt and see no captcha anymore!

4000 symbols left
Hash 142012272183C92D4214E7187EB16924A4658DBB

Related torrents for "Americano 2011 DVDRIP XVID AC3.5.1-26K"

Torrent search:

dvdrip 2011