imdb
rating

7.9
Elementary

Elementary (2012)

Drama, Mystery, Crime

Full description

Elementary.S01E02.720p.WEB.DL.DD5.1.H.264-ECI

Size 1.425 GB   5 seeders     Added 2012-10-06 17:54:47

Stream torrent
Starting‥ You need BitLord! Get it from BitLord.com
To download or stream you need BitLord. Visit them at BitLord.com
- 
http://www.Speed.Cd
 
http://www.Speed.Cd       the fast  and The Hottest Private Tracker on the net

Please Seed back to make the speed Faster!!
 ............ NFO .............
-General
Unique ID                                : 228136196152261407002487709111905126176 (0xABA16EE35D994414AB64A52E94FB8720)
Complete name                            : Elementary.S01E02.While.You.Were.Sleeping.720p.WEB-DL.DD5.1.H.264-ECI.mkv
Format                                   : Matroska
Format version                           : Version 2
File size                                : 1.33 GiB
Duration                                 : 43mn 20s
Overall bit rate                         : 4 382 Kbps
Encoded date                             : UTC 2012-10-05 09:53:52
Writing application                      : mkvmerge v5.8.0 ('No Sleep / Pillow') built on Sep  2 2012 15:37:04
Writing library                          : libebml v1.2.3 + libmatroska v1.3.0

Video
ID                                       : 1
Format                                   : AVC
Format/Info                              : Advanced Video Codec
Format profile                           : High@L3.1
Format settings, CABAC                   : No
Format settings, ReFrames                : 2 frames
Codec ID                                 : V_MPEG4/ISO/AVC
Duration                                 : 43mn 20s
Bit rate                                 : 3 911 Kbps
Width                                    : 1 280 pixels
Height                                   : 720 pixels
Display aspect ratio                     : 16:9
Frame rate mode                          : Constant
Frame rate                               : 23.976 fps
Color space                              : YUV
Chroma subsampling                       : 4:2:0
Bit depth                                : 8 bits
Scan type                                : Progressive
Bits/(Pixel*Frame)                       : 0.177
Stream size                              : 1.18 GiB (89%)
Language                                 : English
Default                                  : Yes
Forced                                   : No
Color primaries                          : BT.709
Transfer characteristics                 : BT.709
Matrix coefficients                      : BT.709

Audio
ID                                       : 2
Format                                   : AC-3
Format/Info                              : Audio Coding 3
Mode extension                           : CM (complete main)
Format settings, Endianness              : Big
Codec ID                                 : A_AC3
Duration                                 : 43mn 20s
Bit rate mode                            : Constant
Bit rate                                 : 384 Kbps
Channel(s)                               : 6 channels
Channel positions                        : Front: L C R, Side: L R, LFE
Sampling rate                            : 48.0 KHz
Bit depth                                : 16 bits
Compression mode                         : Lossy
Stream size                              : 119 MiB (9%)
Language                                 : English
Default                                  : Yes
Forced                                   : No
Elementary.S01E02.While.You.Were.Sleeping.720p.WEB-DL.DD5.1.H.264-ECI.mkv 1.425 GB
Elementary.S01E02.While.You.Were.Sleeping.720p.WEB-DL.DD5.1.H.264-ECI.nfo 3.121 KB
www.speed.cd read me .txt 47 B
Gathering some info...

Register and log in Isohunt and see no captcha anymore!

4000 symbols left
Hash F7F4D7F07FB8BAF5B07AB2E4D3337C660036F8A2

Related torrents for "Elementary.S01E02.720p.WEB.DL.DD5.1.H.264-ECI"

Torrent search:

season 01 episode 02 hd