imdb
rating

8.3
Kylie Minogue: Aphrodite Les Folies Live in London

Kylie Minogue: Aphrodite Les Folies Live in London (2011)

Music

Full description

Kylie Minogue - Flower (h264/mp4)

Size 62.364 MB   0 seeders     Added 2012-10-06 22:52:58

Stream torrent
Starting‥ You need BitLord! Get it from 1BitLord.com
To download or stream you need BitLord. Visit them at BitLord.com
General
Format : MPEG-4
Format profile : Base Media
Codec ID : isom
File size : 59.5 MiB
Duration : 3mn 38s
Overall bit rate mode : Variable
Overall bit rate : 2 288 Kbps
Encoded date : UTC 2012-10-06 02:33:55
Tagged date : UTC 2012-10-06 02:33:55
Video
ID : 1
Format : AVC
Format/Info : Advanced Video Codec
Format profile : High@L3.0
Format settings, CABAC : Yes
Format settings, ReFrames : 2 frames
Codec ID : avc1
Codec ID/Info : Advanced Video Coding
Duration : 3mn 38s
Bit rate : 2 221 Kbps
Maximum bit rate : 5 495 Kbps
Width : 720 pixels
Height : 480 pixels
Display aspect ratio : 16:9
Original display aspect ratio : 16:9
Frame rate mode : Constant
Frame rate : 25.000 fps
Standard : NTSC
Color space : YUV
Chroma subsampling : 4:2:0
Bit depth : 8 bits
Scan type : Progressive
Bits/(Pixel*Frame) : 0.257
Stream size : 57.7 MiB (97%)
Audio
ID : 2
Format : AAC
Format/Info : Advanced Audio Codec
Format profile : LC
Codec ID : 40
Duration : 3mn 37s
Bit rate mode : Variable
Bit rate : 63.4 Kbps
Maximum bit rate : 75.9 Kbps
Channel(s) : 2 channels
Channel positions : Front: L R
Sampling rate : 44.1 KHz
Compression mode : Lossy
Stream size : 1.65 MiB (3%) 
KylieMinogue-Flower-musicvideos-hq.net.mp4 62.364 MB
Gathering some info...

Register and log in Isohunt and see no captcha anymore!

4000 symbols left
Hash 94BDC4F5C345C80D442846A0813C5609CEA22439

Related torrents for "Kylie Minogue - Flower (h264/mp4)"

Torrent search:

h264