Ellie Goulding - I Know You Care (h264/mp4)

Size 45.501 MB   0 seeders     Added 2012-10-06 22:53:01

Stream torrent
Starting‥ You need BitLord! Get it from 1BitLord.com
10
To download or stream you need BitLord. Visit them at BitLord.com
General

Format                         : MPEG-4
Format profile                 : Base Media
Codec ID                       : isom
File size                      : 43.4 MiB
Duration                       : 3mn 27s
Overall bit rate mode          : Variable
Overall bit rate               : 1 754 Kbps
Encoded date                   : UTC 2012-10-06 02:37:51
Tagged date                    : UTC 2012-10-06 02:37:51

Video
ID                             : 1
Format                         : AVC
Format/Info                    : Advanced Video Codec
Format profile                 : High@L3.0
Format settings, CABAC         : Yes
Format settings, ReFrames      : 2 frames
Codec ID                       : avc1
Codec ID/Info                  : Advanced Video Coding
Duration                       : 3mn 27s
Bit rate                       : 1 687 Kbps
Maximum bit rate               : 3 827 Kbps
Width                          : 720 pixels
Height                         : 480 pixels
Display aspect ratio           : 16:9
Original display aspect ratio  : 16:9
Frame rate mode                : Constant
Frame rate                     : 25.000 fps
Standard                       : NTSC
Color space                    : YUV
Chroma subsampling             : 4:2:0
Bit depth                      : 8 bits
Scan type                      : Progressive
Bits/(Pixel*Frame)             : 0.195
Stream size                    : 41.7 MiB (96%)


Audio
ID                             : 2
Format                         : AAC
Format/Info                    : Advanced Audio Codec
Format profile                 : LC
Codec ID                       : 40
Duration                       : 3mn 27s
Bit rate mode                  : Variable
Bit rate                       : 63.7 Kbps
Maximum bit rate               : 72.4 Kbps
Channel(s)                     : 2 channels
Channel positions              : Front: L R
Sampling rate                  : 44.1 KHz
Compression mode               : Lossy
Stream size                    : 1.58 MiB (4%)
EllieGoulding-IKnowYouCare-musicvideos-hq.net.mp4 45.501 MB
Gathering some info...

Register and log in Isohunt and see no captcha anymore!

4000 symbols left
Hash DC92233120973BBDDF1275DF05D031D876ED0C07