imdb
rating

7.1
Fun

Fun (1994)

Drama, Romance, Thriller

Full description
quality   hd x264 fullhd h264

Fun Ft. Janelle Monae - We Are Young (h264/mp4)

Size 97.851 MB   0 seeders     Added 2012-10-06 22:53:05

Stream torrent
Starting‥ You need BitLord! Get it from 1BitLord.com
To download or stream you need BitLord. Visit them at BitLord.com
General

Format                         : MPEG-4
Format profile                 : Base Media
Codec ID                       : isom
File size                      : 93.3 MiB
Duration                       : 4mn 12s
Overall bit rate mode          : Variable
Overall bit rate               : 3 105 Kbps
Encoded date                   : UTC 2012-10-06 02:47:16
Tagged date                    : UTC 2012-10-06 02:47:16

Video
ID                             : 1
Format                         : AVC
Format/Info                    : Advanced Video Codec
Format profile                 : High@L3.0
Format settings, CABAC         : Yes
Format settings, ReFrames      : 2 frames
Codec ID                       : avc1
Codec ID/Info                  : Advanced Video Coding
Duration                       : 4mn 12s
Bit rate                       : 3 040 Kbps
Maximum bit rate               : 12.6 Mbps
Width                          : 720 pixels
Height                         : 480 pixels
Display aspect ratio           : 16:9
Original display aspect ratio  : 16:9
Frame rate mode                : Constant
Frame rate                     : 23.976 fps
Standard                       : NTSC
Color space                    : YUV
Chroma subsampling             : 4:2:0
Bit depth                      : 8 bits
Scan type                      : Progressive
Bits/(Pixel*Frame)             : 0.367
Stream size                    : 91.4 MiB (98%)


Audio
ID                             : 2
Format                         : AAC
Format/Info                    : Advanced Audio Codec
Format profile                 : LC
Codec ID                       : 40
Duration                       : 4mn 12s
Bit rate mode                  : Variable
Bit rate                       : 60.6 Kbps
Maximum bit rate               : 78.1 Kbps
Channel(s)                     : 2 channels
Channel positions              : Front: L R
Sampling rate                  : 44.1 KHz
Compression mode               : Lossy
Stream size                    : 1.82 MiB (2%)
FunFt.JanelleMonae-WeAreYoung-musicvideos-hq.net.mp4 97.851 MB
Gathering some info...

Register and log in Isohunt and see no captcha anymore!

4000 symbols left
Hash 36A8C496EF77CC2CD4FAB9380A2EC6A95E5C91DF

Related torrents for "Fun Ft. Janelle Monae - We Are Young (h264/mp4)"

Torrent search:

h264