imdb
rating

7.5
Arthur

Arthur (1996)

Animation, Comedy

Full description

Merlin.S05E01.Arthurs.Bane.Part.One.HDTV.Xvid-MrX

Size 393.633 MB   14 seeders     Added 2012-10-07 05:54:25

Stream torrent
Starting‥ You need BitLord! Get it from BitLord.com
5.7
To download or stream you need BitLord. Visit them at BitLord.com
Merlin.S05E01.Arthurs.Bane.Part.One.HDTV.Xvid-MrX
 
http://www.bbc.co.uk/merlin/



General
Complete name                            : Merlin.S05E01.Arthurs.Bane.Part.One.HDTV.Xvid-MrX.avi
Format                                   : AVI
Format/Info                              : Audio Video Interleave
File size                                : 374 MiB
Duration                                 : 42mn 38s
Overall bit rate mode                    : Variable
Overall bit rate                         : 1 227 Kbps

Video
ID                                       : 0
Format                                   : MPEG-4 Visual
Format profile                           : Advanced Simple@L5
Format settings, BVOP                    : 1
Format settings, QPel                    : No
Format settings, GMC                     : No warppoints
Format settings, Matrix                  : Default (H.263)
Muxing mode                              : Packed bitstream
Codec ID                                 : XVID
Codec ID/Hint                            : XviD
Duration                                 : 42mn 38s
Bit rate                                 : 1 052 Kbps
Width                                    : 640 pixels
Height                                   : 352 pixels
Display aspect ratio                     : 16:9
Frame rate                               : 25.000 fps
Color space                              : YUV
Chroma subsampling                       : 4:2:0
Bit depth                                : 8 bits
Scan type                                : Progressive
Compression mode                         : Lossy
Bits/(Pixel*Frame)                       : 0.187
Stream size                              : 321 MiB (86%)
Writing library                          : XviD 1.2.1 (UTC 2008-12-04)

Audio
ID                                       : 1
Format                                   : MPEG Audio
Format version                           : Version 1
Format profile                           : Layer 3
Codec ID                                 : 55
Codec ID/Hint                            : MP3
Duration                                 : 42mn 38s
Bit rate mode                            : Variable
Bit rate                                 : 161 Kbps
Minimum bit rate                         : 128 Kbps
Channel(s)                               : 2 channels
Sampling rate                            : 48.0 KHz
Compression mode                         : Lossy
Stream size                              : 49.2 MiB (13%)
Alignment                                : Aligned on interleaves
Interleave, duration                     : 24 ms (0.60 video frame)
Interleave, preload duration             : 214 ms
Title                                    : Merlin.S05E01.Arthurs.Bane.Part.One
Writing library                          : LAME3.99r
Encoding settings                        : -m s -V 4 -q 0 -lowpass 17.5 --vbr-mt -b 128
Merlin.S05E01.Arthurs.Bane.Part.One.HDTV.Xvid-MrX.avi 392.325 MB
Merlin.S05E01.Arthurs.Bane.Part.One.HDTV.Xvid-MrX.png 1.305 MB
Merlin.S05E01.Arthurs.Bane.Part.One.HDTV.Xvid-MrX.nfo 2.979 KB
Gathering some info...

Register and log in Isohunt and see no captcha anymore!

4000 symbols left
Hash 87FF7A941EEADB6BC362AF904558455E51638736

Related torrents for "Merlin.S05E01.Arthurs.Bane.Part.One.HDTV.Xvid-MrX"

Torrent search:

season 05 episode 01 hdtv