Paisa

Paisa (2016)

Drama, Crime

Full description
quality   hd dvdrip screener x264

Kismet Love Paisa Dilli (2012) DVDSCRIP -=R=

Size 737.1 MB   0 seeders     Added 2012-10-07 20:00:22

Stream torrent
Starting‥ You need BitLord! Get it from 1BitLord.com
To download or stream you need BitLord. Visit them at BitLord.com
[b]Kismet Love Paisa Dilli (2012) DVDSCREENER 1CDRip[/b] 

[img]image[/img]
General
Complete name : Kismet Love Paisa Dilli .avi
Format : AVI
Format/Info : Audio Video Interleave
File size : 698 MiB
Duration : 2h 19mn
Overall bit rate : 699 Kbps
Writing application : VirtualDubMod 1.5.10.2 (build 2540/release)
Writing library : VirtualDubMod build 2540/release

Video
ID : 0
Format : MPEG-4 Visual
Format profile : Advanced Simple@L5
Format settings, BVOP : 2
Format settings, QPel : No
Format settings, GMC : No warppoints
Format settings, Matrix : Custom
Codec ID : XVID
Codec ID/Hint : XviD
[code]Duration : 2h 19mn [/code]
Bit rate : 610 Kbps
[code]Width : 624 pixels[/code]
[code]Height : 272 pixels[/code]
Display aspect ratio : 2.25:1
Frame rate : 23.976 fps
Color space : YUV
Chroma subsampling : 4:2:0
Bit depth : 8 bits
Scan type : Progressive
Compression mode : Lossy
Bits/(Pixel*Frame) : 0.150
Stream size : 609 MiB (87%)
Writing library : XviD 1.2.1 (UTC 2008-12-04)

Audio
ID : 1
Format : MPEG Audio
Format version : Version 1
Format profile : Layer 3
Mode : Joint stereo
Mode extension : MS Stereo
Codec ID : 55
Codec ID/Hint : MP3
Duration : 2h 19mn
Bit rate mode : Constant
Bit rate : 80.0 Kbps
Channel(s) : 2 channels
Sampling rate : 32.0 KHz
Compression mode : Lossy
Stream size : 79.9 MiB (11%)
Alignment : Aligned on interleaves
Interleave, duration : 42 ms (1.00 video frame)
Interleave, preload duration : 504 ms
Writing library : LAME3.99r
Encoding settings : -m j -V 4 -q 2 -lowpass 13.5 -b 80

[img]image[/img]
[img]image[/img]
[img]image[/img]
[img]image[/img]
[img]image[/img]
[img]image[/img]
[img]image[/img]
[img]image[/img]
[img]image[/img]
[img]image[/img]
Kismet Love Paisa Dilli.-=R=-[www.mastitorrents.com].avi 732.406 MB
sample/smpl-Kismet -=R=-[www.mastitorrents.com].avi 4.694 MB
Gathering some info...

Register and log in Isohunt and see no captcha anymore!

4000 symbols left
Hash 0CE80895C6C6691049312BAACDF815063B43D264

Related torrents for "Kismet Love Paisa Dilli (2012) DVDSCRIP -=R="

Torrent search:

2012