Taken

Taken (2002)

Sci-Fi

Full description

Taken 2 2012 CAM XviD FRiSSON avi

Size 811.971 MB   0 seeders     Added 2012-10-08 14:23:25

Stream torrent
Starting‥ You need BitLord! Get it from 1BitLord.com
To download or stream you need BitLord. Visit them at BitLord.com
[b]Taken 2 2012 CAM XviD-FRiSSON

[img]image[/img]

Information:
Code:[/b]
[quote]
 {Taken 2 2012 CAM XviD-FRiSSON}
     

http://www.imdb.com/title/tt1397280/

{Source}
NOYPi (Thanks)
             
{Info}
Format                           : AVI
Format/Info                      : Audio Video Interleave
File size                        : 774 MiB
Duration                         : 1h 23mn
Overall bit rate                 : 1 299 Kbps

{Video}
ID                               : 0
Format                           : MPEG-4 Visual
Format profile                   : Advanced Simple@L5
Format settings, BVOP            : 2
Format settings, QPel            : No
Format settings, GMC             : No warppoints
Format settings, Matrix          : Default (H.263)
Muxing mode                      : Packed bitstream
Codec ID                         : XVID
Codec ID/Hint                    : XviD
Duration                         : 1h 23mn
Bit rate                         : 1 159 Kbps
Width                            : 672 pixels
Height                           : 288 pixels
Display aspect ratio             : 2.35:1
Frame rate                       : 29.970 fps
Color space                      : YUV
Chroma subsampling               : 4:2:0
Bit depth                        : 8 bits
Scan type                        : Progressive
Compression mode                 : Lossy
Bits/(Pixel*Frame)               : 0.200
Stream size                      : 691 MiB (89%)
Writing library                  : XviD 64

{Audio}
ID                               : 1
Format                           : MPEG Audio
Format version                   : Version 1
Format profile                   : Layer 3
Codec ID                         : 55
Codec ID/Hint                    : MP3
Duration                         : 1h 23mn
Bit rate mode                    : Constant
Bit rate                         : 128 Kbps
Channel(s)                       : 1 channel
Sampling rate                    : 48.0 KHz
Compression mode                 : Lossy
Stream size                      : 76.3 MiB (10%)
Alignment                        : Split accross interleaves
Interleave, duration             : 33 ms (1.00 video frame)
Interleave, preload duration     : 500 ms
[/quote]

[b]Screens:[/b]

[img]image[/img]
[img]image[/img]
[img]image[/img]
Taken.2.2012.CAM.XviD-FRiSSON.avi 811.971 MB
Gathering some info...

Register and log in Isohunt and see no captcha anymore!

4000 symbols left
Hash 195A47C8F08D9706EEFD88F9FF11BD3E27F990E6

Related torrents for "Taken 2 2012 CAM XviD FRiSSON avi"

Torrent search:

cam 2012