imdb
rating

6.4
Chained

Chained (2012)

Action, Thriller

Full description
quality   bd x264 hd dvdrip h264 fullhd

Chained 2012 BRrip English Skandale

Size 1.092 GB   0 seeders     Added 2012-10-08 16:44:35

Stream torrent
Starting‥ You need BitLord! Get it from BitLord.com
To download or stream you need BitLord. Visit them at BitLord.com
[IMG]image[/IMG]\r\nmet Vincent D'Onofrio, Julia Ormond en Gina Philips\r\n\r\nToen Tim 8 jaar oud was werd hij met zijn moeder opgepikt door de gestoorde taxi-chauffeur Bob. Zo heeft Tim al vroeg in zijn leven zijn eerste moord gezien, die op zijn moeder. Bob neemt Tim vervolgens echter mee op zijn destructieve pad als protegé en dwingt hem de lichamen van de vermoorde vrouwen te begraven. Nu Tim inmiddels een tiener is ziet hij zich gesteld voor een lastige keuze...\r\n\r\nBob, a cab-driving serial killer who stalks his prey on the city streets alongside his reluctant protégé Tim, who must make a life or death choice between following in Bob's footsteps or breaking free from his captor.\r\n\r\nhttp://www.imdb.com/title/tt1989475/\r\n\r\n[COLOR=#3300FF]------------------------ Dutch Friends ------------------------\r\n---------------------------------------------------------------\r\n- Bezoek ook eens mijn vrienden op:  http://www.Film-Test.nl --\r\n----- voor mijn Nederlandse Sync. ondertitels ---- en meer ----\r\n------- http://www.Film-Test.nl ---- voor Films en meer -------\r\n---------------------------------------------------------------[/COLOR]\r\nGeneral\r\nComplete name                            : Chained 2012.avi\r\nFormat                                   : AVI\r\nFormat/Info                              : Audio Video Interleave\r\nFile size                                : 1.02 GiB\r\nDuration                                 : 1h 34mn\r\nOverall bit rate                         : 1 544 Kbps\r\n\r\nVideo\r\nID                                       : 0\r\nFormat                                   : MPEG-4 Visual\r\nFormat profile                           : Simple@L3\r\nFormat settings, BVOP                    : No\r\nFormat settings, QPel                    : No\r\nFormat settings, GMC                     : No warppoints\r\nFormat settings, Matrix                  : Default (H.263)\r\nCodec ID                                 : XVID\r\nCodec ID/Hint                            : XviD\r\nDuration                                 : 1h 34mn\r\nSource duration                          : 1h 34mn\r\nBit rate                                 : 1 085 Kbps\r\nWidth                                    : 720 pixels\r\nHeight                                   : 304 pixels\r\nDisplay aspect ratio                     : 2.35:1\r\nFrame rate                               : 25.000 fps\r\nColor space                              : YUV\r\nChroma subsampling                       : 4:2:0\r\nBit depth                                : 8 bits\r\nScan type                                : Progressive\r\nCompression mode                         : Lossy\r\nBits/(Pixel*Frame)                       : 0.198\r\nStream size                              : 732 MiB (70%)\r\nWriting library                          : XviD 1.1.2 (UTC 2006-11-01)\r\n\r\nAudio\r\nID                                       : 1\r\nFormat                                   : AC-3\r\nFormat/Info                              : Audio Coding 3\r\nMode extension                           : CM (complete main)\r\nFormat settings, Endianness              : Big\r\nCodec ID                                 : 2000\r\nDuration                                 : 1h 34mn\r\nBit rate mode                            : Constant\r\nBit rate                                 : 448 Kbps\r\nChannel(s)                               : 6 channels\r\nChannel positions                        : Front: L C R, Side: L R, LFE\r\nSampling rate                            : 48.0 KHz\r\nBit depth                                : 16 bits\r\nCompression mode                         : Lossy\r\nStream size                              : 302 MiB (29%)\r\nAlignment                                : Aligned on interleaves\r\nInterleave, duration                     : 32 ms (0.80 video frame)\r\nInterleave, preload duration             : 32 ms
Chained 2012.avi 1.092 GB
Cover/Chained-2012--.jpg 54.96 KB
flyer.jpg 33.678 KB
Gathering some info...

Register and log in Isohunt and see no captcha anymore!

4000 symbols left
Hash E636340604CE76481043D6AFC543C6B28945C31C

Related torrents for "Chained 2012 BRrip English Skandale"

Torrent search:

english 2012 bd