Taken

Taken (2002)

Sci-Fi

Full description

Taken 2 2012 FRENCH CAM MD XViD-SERUM avi

Size 1.049 GB   0 seeders     Added 2012-10-08 22:04:48

Stream torrent
Starting‥ You need BitLord! Get it from 1BitLord.com
To download or stream you need BitLord. Visit them at BitLord.com
[center]
[img]image[/img]

[b]Release Name:[/b] Taken.2.2012.FRENCH.CAM.MD.XViD-SERUM.avi
[b]Size:[/b] 0.99 GB
[b]Video:[/b] XviD | 720×308 | 1 544 Kbps
[b]Audio:[/b] French | MP3

[quote]
Video

ID                                       : 0
Format                                   : MPEG-4 Visual
Format profile                           : Advanced Simple@L5
Format settings, BVOP                    : 2
Format settings, QPel                    : No
Format settings, GMC                     : No warppoints
Format settings, Matrix                  : Default (H.263)
Muxing mode                              : Packed bitstream
Codec ID                                 : XVID
Codec ID/Hint                            : XviD
Duration                                 : 1h 23mn
Bit rate                                 : 1 544 Kbps
Width                                    : 720 pixels
Height                                   : 308 pixels
Display aspect ratio                     : 2.35:1
Frame rate                               : 29.970 fps
Color space                              : YUV
Chroma subsampling                       : 4:2:0
Bit depth                                : 8 bits
can type                                : Progressive
Compression mode                         : Lossy
Bits/(Pixel*Frame)                       : 0.232
Stream size                              : 920 MiB (92%)
Writing library                          : XviD 64
 
Audio
ID                                       : 1
Format                                   : MPEG Audio
Format version                           : Version 1
Format profile                           : Layer 3
Codec ID                                 : 55
Codec ID/Hint                            : MP3
Duration                                 : 1h 23mn
Bit rate mode                            : Constant
Bit rate                                 : 128 Kbps
Channel(s)                               : 1 channel
Sampling rate                            : 48.0 KHz
Compression mode                         : Lossy
Stream size                              : 76.3 MiB (8%)
Alignment                                : Split accross interleaves
Interleave, duration                     : 16340 ms (489.71 video frames)
[/quote]

[b]Screens:[/b]

[IMG]image[/IMG][IMG]image[/IMG][IMG]image[/IMG][IMG]image[/IMG][IMG]image[/IMG][IMG]image[/IMG]
[/center]
Taken.2.2012.FRENCH.CAM.MD.XViD-SERUM.avi 1.049 GB
Gathering some info...

Register and log in Isohunt and see no captcha anymore!

4000 symbols left
Hash 2cebf9be32e98b03accbf3c23e836f464e360a1b

Related torrents for "Taken 2 2012 FRENCH CAM MD XViD-SERUM avi"

Torrent search:

french cam 2012