Ben 10

Ben 10 (2006)

Animation General, Action

Full description

Ben.10.Omniverse.S01E04.WEB-DL.x264-h65.mp4

Size 203.49 MB   0 seeders     Added 2012-10-09 02:54:42

Stream torrent
Starting‥ You need BitLord! Get it from 1BitLord.com
10
To download or stream you need BitLord. Visit them at BitLord.com
Ben.10.Omniverse.S01E04.WEB-DL.x264-h65.mp4

Enjoy and seed it, buddies!

"-h65", a new name for an old friend of yours!
Yeah, baby!
@helder1965

------------------------------------------

General
Format                                   : MPEG-4
Format profile                           : Base Media
Codec ID                                 : isom
File size                                : 194 MiB
Duration                                 : 22mn 36s
Overall bit rate mode                    : Variable
Overall bit rate                         : 1 200 Kbps


Video
ID                                       : 1
Format                                   : AVC
Format/Info                              : Advanced Video Codec
Format profile                           : High@L3.1
Format settings, CABAC                   : Yes
Format settings, ReFrames                : 2 frames
Codec ID                                 : avc1
Codec ID/Info                            : Advanced Video Coding
Duration                                 : 22mn 36s
Bit rate                                 : 1 003 Kbps
Maximum bit rate                         : 4 714 Kbps
Width                                    : 720 pixels
Height                                   : 404 pixels
Display aspect ratio                     : 16:9
Original display aspect ratio            : 16:9
Frame rate mode                          : Constant
Frame rate                               : 23.976 fps
Color space                              : YUV
Chroma subsampling                       : 4:2:0
Bit depth                                : 8 bits
Scan type                                : Progressive
Bits/(Pixel*Frame)                       : 0.144
Stream size                              : 162 MiB (84%)


Audio
ID                                       : 2
Format                                   : AAC
Format/Info                              : Advanced Audio Codec
Format profile                           : LC
Codec ID                                 : 40
Duration                                 : 22mn 36s
Bit rate mode                            : Variable
Bit rate                                 : 192 Kbps
Maximum bit rate                         : 198 Kbps
Channel(s)                               : 2 channels
Channel positions                        : Front: L R
Sampling rate                            : 48.0 KHz
Compression mode                         : Lossy
Stream size                              : 31.0 MiB (16%)		
Ben.10.Omniverse.S01E04.WEB-DL.x264-h65.mp4 203.49 MB
Gathering some info...

Register and log in Isohunt and see no captcha anymore!

4000 symbols left
Hash 801FBB12A89EA8E46F1B29E6426C3DF055E4378C

Related torrents for "Ben.10.Omniverse.S01E04.WEB-DL.x264-h65.mp4"

Torrent search:

season 01 x264 episode 04 web-dl