imdb
rating

7.9
NCIS

NCIS (2003)

Action & Adventure, Crime, Drama

Full description

NCIS Los Angeles S04E02 720p WEB DL DD5 1 H264-NTb

Size 1.513 GB   0 seeders     Added 2012-10-09 12:40:42

Stream torrent
Starting‥ You need BitLord! Get it from BitLord.com
To download or stream you need BitLord. Visit them at BitLord.com
- 
http://www.Speed.Cd
 
http://www.Speed.Cd       the fast  and The Hottest Private Tracker on the net

Please Seed back to make the speed Faster!!
 ............ NFO .............
-General
Unique ID                                : 253005861518272991688194711139458343222 (0xBE57280F18AF8BB7B6BAD31E5759E136)
Complete name                            : NCIS.Los.Angeles.S04E02.720p.WEB.DL.DD5.1.H264-NTbNCIS.Los.Angeles.S04E02.Recruit.720p.WEB-DL.DD5.1.H264-NTb.mkv
Format                                   : Matroska
Format version                           : Version 2
File size                                : 1.41 GiB
Duration                                 : 43mn 37s
Overall bit rate                         : 4 626 Kbps
Encoded date                             : UTC 2012-10-05 09:07:37
Writing application                      : mkvmerge v5.8.0 ('No Sleep / Pillow') built on Sep  2 2012 15:37:04
Writing library                          : libebml v1.2.3 + libmatroska v1.3.0

Video
ID                                       : 1
Format                                   : AVC
Format/Info                              : Advanced Video Codec
Format profile                           : High@L3.1
Format settings, CABAC                   : No
Format settings, ReFrames                : 2 frames
Muxing mode                              : Header stripping
Codec ID                                 : V_MPEG4/ISO/AVC
Duration                                 : 43mn 37s
Bit rate                                 : 4 149 Kbps
Width                                    : 1 280 pixels
Height                                   : 720 pixels
Display aspect ratio                     : 16:9
Frame rate mode                          : Constant
Frame rate                               : 23.976 fps
Color space                              : YUV
Chroma subsampling                       : 4:2:0
Bit depth                                : 8 bits
Scan type                                : Progressive
Bits/(Pixel*Frame)                       : 0.188
Stream size                              : 1.26 GiB (90%)
Language                                 : English
Default                                  : Yes
Forced                                   : No
Color primaries                          : BT.709
Transfer characteristics                 : BT.709
Matrix coefficients                      : BT.709

Audio
ID                                       : 2
Format                                   : AC-3
Format/Info                              : Audio Coding 3
Mode extension                           : CM (complete main)
Format settings, Endianness              : Big
Muxing mode                              : Header stripping
Codec ID                                 : A_AC3
Duration                                 : 43mn 37s
Bit rate mode                            : Constant
Bit rate                                 : 384 Kbps
Channel(s)                               : 6 channels
Channel positions                        : Front: L C R, Side: L R, LFE
Sampling rate                            : 48.0 KHz
Bit depth                                : 16 bits
Compression mode                         : Lossy
Stream size                              : 120 MiB (8%)
Language                                 : English
Default                                  : Yes
Forced                                   : No
[ www.Speed.Cd ] - NCIS.Los.Angeles.S04E02.720p.WEB.DL.DD5.1.H264-NTb/NCIS.Los.Angeles.S04E02.Recruit.720p.WEB-DL.DD5.1.H264-NTb.mkv 1.513 GB
[ www.Speed.Cd ] - NCIS.Los.Angeles.S04E02.720p.WEB.DL.DD5.1.H264-NTb/NCIS.Los.Angeles.S04E02.Recruit.720p.WEB-DL.DD5.1.H264-NTb.nfo 6.568 KB
[ www.Speed.Cd ] - NCIS.Los.Angeles.S04E02.720p.WEB.DL.DD5.1.H264-NTb/www.speed.cd read me .txt 47 B
Gathering some info...

Register and log in Isohunt and see no captcha anymore!

4000 symbols left
Hash ae103782545ef61ad6012c636fa9f5f3d31227f4

Related torrents for "NCIS Los Angeles S04E02 720p WEB DL DD5 1 H264-NTb"

Torrent search:

h264 episode 02 season 04 hd web-dl