imdb
rating

7.8
Argo

Argo (2012)

Drama, Thriller

Full description
quality   dvdrip x264 bd hd fullhd

Argo 2012 DVDRip XviD-AMIABLE

Size 719.646 MB   0 seeders     Added 2012-10-10 06:34:23

Stream torrent
Starting‥ You need BitLord! Get it from BitLord.com
7.1
To download or stream you need BitLord. Visit them at BitLord.com
Video
ID : 0
Format : MPEG-4 Visual
Format profile : Advanced Simple@L5
Format settings, BVOP : 2
Format settings, QPel : No
Format settings, GMC : No warppoints
Format settings, Matrix : Default (H.263)
Muxing mode : Packed bitstream
Codec ID : XVID
Codec ID/Hint : XviD
Duration : 1h 30mn
Bit rate : 1 368 Kbps
Width : 720 pixels
Height : 272 pixels
Display aspect ratio : 2.647
Frame rate : 29.970 fps
Color space : YUV
Chroma subsampling : 4:2:0
Bit depth : 8 bits
Scan type : Progressive
Compression mode : Lossy
Bits/(Pixel*Frame) : 0.233
Stream size : 886 MiB (91%)
Writing library : XviD 64

Audio
ID : 1
Format : MPEG Audio
Format version : Version 1
Format profile : Layer 3
Mode : Joint stereo
Mode extension : MS Stereo
Codec ID : 55
Codec ID/Hint : MP3
Duration : 1h 30mn
Bit rate mode : Constant
Bit rate : 128 Kbps
Channel(s) : 2 channels
Sampling rate : 48.0 KHz
Compression mode : Lossy
Stream size : 82.9 MiB (8%)
Alignment : Split accross interleaves
Interleave, duration : 33 ms (1.00 video frame)
Interleave, preload duration : 500 ms
Argo.2012.DVDRip XviD-AMIABLE/Argo (2012).wmv 719.489 MB
Argo.2012.DVDRip XviD-AMIABLE/info.nfo 5.075 KB
Argo.2012.DVDRip XviD-AMIABLE/Readme.txt 683 B
Gathering some info...

Register and log in Isohunt and see no captcha anymore!

4000 symbols left
Hash 29214c150832847238a47da0799b003802b39650

Related torrents for "Argo 2012 DVDRip XviD-AMIABLE"

Torrent search:

dvdrip 2012