T-Pain - Dont You Quit (h264/mp4)

Size 73.028 MB   0 seeders     Added 2012-10-10 08:52:58

Stream torrent
Starting‚Ä• You need BitLord! Get it from BitLord.com
To download or stream you need BitLord. Visit them at BitLord.com
General
Format : MPEG-4
Format profile : Base Media
Codec ID : isom
File size : 69.6 MiB
Duration : 3mn 24s
Overall bit rate mode : Variable
Overall bit rate : 2 857 Kbps
Encoded date : UTC 2012-10-09 04:36:34
Tagged date : UTC 2012-10-09 04:36:34
Video
ID : 1
Format : AVC
Format/Info : Advanced Video Codec
Format profile : High@L3.0
Format settings, CABAC : Yes
Format settings, ReFrames : 2 frames
Codec ID : avc1
Codec ID/Info : Advanced Video Coding
Duration : 3mn 24s
Bit rate : 2 661 Kbps
Maximum bit rate : 7 107 Kbps
Width : 720 pixels
Height : 480 pixels
Display aspect ratio : 16:9
Original display aspect ratio : 16:9
Frame rate mode : Constant
Frame rate : 23.976 fps
Standard : NTSC
Color space : YUV
Chroma subsampling : 4:2:0
Bit depth : 8 bits
Scan type : Progressive
Bits/(Pixel*Frame) : 0.321
Stream size : 64.9 MiB (93%)
Audio
ID : 2
Format : AAC
Format/Info : Advanced Audio Codec
Format profile : LC
Codec ID : 40
Duration : 3mn 24s
Bit rate mode : Variable
Bit rate : 192 Kbps
Maximum bit rate : 213 Kbps
Channel(s) : 2 channels
Channel positions : Front: L R
Sampling rate : 44.1 KHz
Compression mode : Lossy
Stream size : 4.69 MiB (7%) 
T-Pain-DontYouQuit-musicvideos-hq.net.mp4 73.028 MB
Gathering some info...

Register and log in Isohunt and see no captcha anymore!

4000 symbols left
Hash E52263952C526DE8B15E881C0A90B19955DC97FA