imdb
rating

6.8
Smashed

Smashed (2012)

Drama

Full description

Smashed 2012 DVDRip XviD-SPARK

Size 714.55 MB   0 seeders     Added 2012-10-10 14:50:13

Stream torrent
Starting‥ You need BitLord! Get it from BitLord.com
To download or stream you need BitLord. Visit them at BitLord.com
\r\n\r\n\r\n\r\nFormat/Info                      : Audio Video Interleave\r\nFile size                        : 708 MiB\r\nDuration                         : 1h 26mn\r\nOverall bit rate                 : 1 052 Kbps\r\nWriting library                  : VirtualDub build 30091/release\r\n\r\nVideo\r\nID                               : 0\r\nFormat                           : MPEG-4 Visual\r\nFormat profile                   : Advanced Simple@L5\r\nFormat settings, BVOP            : 2\r\nFormat settings, QPel            : No\r\nFormat settings, GMC             : No warppoints\r\nFormat settings, Matrix          : Default (H.263)\r\nCodec ID                         : XVID\r\nCodec ID/Hint                    : XviD\r\nDuration                         : 1h 26mn\r\nBit rate                         : 658 Kbps\r\nWidth                            : 720 pixels\r\nHeight                           : 304 pixels\r\nDisplay aspect ratio             : 2.35:1\r\nFrame rate                       : 25.000 fps\r\nColor space                      : YUV\r\nChroma subsampling               : 4:2:0\r\nBit depth                        : 8 bits\r\nScan type                        : Progressive\r\nCompression mode                 : Lossy\r\nBits/(Pixel*Frame)               : 0.120\r\nStream size                      : 405 MiB (63%)\r\nWriting library                  : XviD 1.2.1 (UTC 2008-12-04)\r\n\r\nAudio\r\nID                               : 1\r\nFormat                           : AC-3\r\nFormat/Info                      : Audio Coding 3\r\nMode extension                   : CM (complete main)\r\nCodec ID                         : 2000\r\nDuration                         : 1h 26mn\r\nBit rate mode                    : Constant\r\nBit rate                         : 384 Kbps\r\nChannel(s)                       : 6 channels\r\nChannel positions                : Front: L C R, Side: L R, LFE\r\nSampling rate                    : 48.0 KHz\r\nBit depth                        : 16 bits\r\nCompression mode                 : Lossy\r\nStream size                      : 236 MiB (37%)\r\nAlignment                        : Aligned on interleaves\r\nInterleave, duration             : 40 ms (1.00 video frame)\r\nInterleave, preload duration     : 512 ms\r\n\r\n\r\n\r\n\r\n\r\n\r\n
Smashed 2012 DVDRip XviD-SPARK/info.nfo 5.075 KB
Smashed 2012 DVDRip XviD-SPARK/Readme.txt 5.075 KB
Smashed 2012 DVDRip XviD-SPARK/Smashed-SPARK.wmv 714.389 MB
Gathering some info...

Register and log in Isohunt and see no captcha anymore!

4000 symbols left
Hash b1ad8c85807a9589166638ac1cee5e063bad614e

Related torrents for "Smashed 2012 DVDRip XviD-SPARK"

Torrent search:

dvdrip 2012