imdb
rating

6.8
Trouble with the Curve

Trouble with the Curve (2012)

Drama, Romance

Full description

Trouble with the Curve 2012 DVDRip XviD-SPARK

Size 722.621 MB   0 seeders     Added 2012-10-10 15:03:12

Stream torrent
Starting‥ You need BitLord! Get it from BitLord.com
To download or stream you need BitLord. Visit them at BitLord.com
Format/Info                      : Audio Video Interleave
File size                        : 708 MiB
Duration                         : 1h 26mn
Overall bit rate                 : 1 052 Kbps
Writing library                  : VirtualDub build 30091/release

Video
ID                               : 0
Format                           : MPEG-4 Visual
Format profile                   : Advanced Simple@L5
Format settings, BVOP            : 2
Format settings, QPel            : No
Format settings, GMC             : No warppoints
Format settings, Matrix          : Default (H.263)
Codec ID                         : XVID
Codec ID/Hint                    : XviD
Duration                         : 1h 26mn
Bit rate                         : 658 Kbps
Width                            : 720 pixels
Height                           : 304 pixels
Display aspect ratio             : 2.35:1
Frame rate                       : 25.000 fps
Color space                      : YUV
Chroma subsampling               : 4:2:0
Bit depth                        : 8 bits
Scan type                        : Progressive
Compression mode                 : Lossy
Bits/(Pixel*Frame)               : 0.120
Stream size                      : 405 MiB (63%)
Writing library                  : XviD 1.2.1 (UTC 2008-12-04)

Audio
ID                               : 1
Format                           : AC-3
Format/Info                      : Audio Coding 3
Mode extension                   : CM (complete main)
Codec ID                         : 2000
Duration                         : 1h 26mn
Bit rate mode                    : Constant
Bit rate                         : 384 Kbps
Channel(s)                       : 6 channels
Channel positions                : Front: L C R, Side: L R, LFE
Sampling rate                    : 48.0 KHz
Bit depth                        : 16 bits
Compression mode                 : Lossy
Stream size                      : 236 MiB (37%)
Alignment                        : Aligned on interleaves
Interleave, duration             : 40 ms (1.00 video frame)
Interleave, preload duration     : 512 ms
Trouble with the Curve 2012 DVDRip XviD-SPARK/info.nfo 5.075 KB
Trouble with the Curve 2012 DVDRip XviD-SPARK/Readme.txt 683 B
Trouble with the Curve 2012 DVDRip XviD-SPARK/Subtitle.srt 66.326 KB
Gathering some info...

Register and log in Isohunt and see no captcha anymore!

4000 symbols left
Hash 811d31d8114cc311ed127f74bdd28d6af5633298

Related torrents for "Trouble with the Curve 2012 DVDRip XviD-SPARK"

Torrent search:

dvdrip 2012