H

H (1998)

Comedy

Full description

The Simpsons S24E02 23 720p WEB-DL DD5 1 H 264-CtrlHD

Size 703.508 MB   0 seeders     Added 2012-10-10 15:00:40

Stream torrent
Starting‥ You need BitLord! Get it from BitLord.com
To download or stream you need BitLord. Visit them at BitLord.com
- 
http://www.Speed.Cd
 
http://www.Speed.Cd       the fast  and The Hottest Private Tracker on the net

Please Seed back to make the speed Faster!!
 ............ NFO .............
-Video
 ID : 1
 Format : AVC
 Format/Info : Advanced Video Codec
 Format profile : High@L3.1
 Format settings, CABAC : No
 Format settings, ReFrames : 2 frames
 Codec ID : V_MPEG4/ISO/AVC
 Duration : 21mn 48s
 Bit rate : 3 831 Kbps
 Width : 1 280 pixels
 Height : 720 pixels
 Display aspect ratio : 16:9
 Frame rate : 23.976 fps
 Color space : YUV
 Chroma subsampling : 4:2:0
 Bit depth : 8 bits
 Scan type : Progressive
 Bits/(Pixel*Frame) : 0.173
 Stream size : 598 MiB (89%)
 Language : English
 Default : Yes
 Forced : No
 Color primaries : BT.709-5, BT.1361, IEC 61966-2-4, SMPTE RP177
 Transfer characteristics : BT.709-5, BT.1361
 Matrix coefficients : BT.709-5, BT.1361, IEC 61966-2-4 709, SMPTE RP177

 Audio
 ID : 2
 Format : AC-3
 Format/Info : Audio Coding 3
 Mode extension : CM (complete main)
 Format settings, Endianness : Big
 Codec ID : A_AC3
 Duration : 21mn 48s
 Bit rate mode : Constant
 Bit rate : 384 Kbps
 Channel(s) : 6 channels
 Channel positions : Front: L C R, Side: L R, LFE
 Sampling rate : 48.0 KHz
 Bit depth : 16 bits
 Compression mode : Lossy
 Stream size : 59.9 MiB (9%)
 Language : English
 Default : Yes
 Forced : No
[ www.Speed.Cd ] - The.Simpsons.S24E02.23.720p.WEB-DL.DD5.1.H.264-CtrlHD/The.Simpsons.S24E02.Treehouse.of.Horror.23.720p.WEB-DL.DD5.1.H.264-CtrlHD.mkv 703.506 MB
[ www.Speed.Cd ] - The.Simpsons.S24E02.23.720p.WEB-DL.DD5.1.H.264-CtrlHD/The.Simpsons.S24E02.Treehouse.of.Horror.23.720p.WEB-DL.DD5.1.H.264-CtrlHD.nfo 1.197 KB
[ www.Speed.Cd ] - The.Simpsons.S24E02.23.720p.WEB-DL.DD5.1.H.264-CtrlHD/www.speed.cd read me .txt 47 B
Gathering some info...

Register and log in Isohunt and see no captcha anymore!

4000 symbols left
Hash f545e4d098979362cd7d69ab48a65c023c571348

Related torrents for "The Simpsons S24E02 23 720p WEB-DL DD5 1 H 264-CtrlHD"

Torrent search:

episode 02 hd web-dl season 24