Attack of the Show 2012 10 09 x264 OzQuant

Size 309.506 MB   0 seeders     Added 2012-10-10 15:21:16

Stream torrent
Starting‥ You need BitLord! Get it from BitLord.com
To download or stream you need BitLord. Visit them at BitLord.com
[size=200]Episode Info[/size]
Tonight on Attack of the Show, Rob Huebel and Candace Bailey bring you Danai Gurira from The Walking Dead to talk about her role as Michonne in the upcoming third season and we go behind the scenes on the set of George to the Rescue. Plus, Chris Gore tells us if we should buy, rent or pass on Blu-ray releases like Prometheus and Rock of Ages and Jessica Chobot chats with the cast of Seven Psychopaths. And who will win our Epic Giveaway winner! Tune in tonight 7/6c for the big reveal.

[size=200]File Info[/size]
Format : MPEG-4
Format profile : Base Media / Version 2
Codec ID : mp42
File size : 295 MiB
Duration : 43mn 18s
Overall bit rate mode : Variable
Overall bit rate : 953 Kbps

[size=200]Video[/size]
ID : 1
Format : AVC
Format/Info : Advanced Video Codec
Format profile : Main@L3.0
Format settings, CABAC : Yes
Format settings, ReFrames : 4 frames
Codec ID : avc1
Codec ID/Info : Advanced Video Coding
Duration : 43mn 18s
Bit rate mode : Variable
Bit rate : 885 Kbps
Width : 528 pixels
Height : 416 pixels
Display aspect ratio : 16:9
Frame rate mode : Variable
Frame rate : 25.000 fps
Minimum frame rate : 12.500 fps
Maximum frame rate : 25.000 fps
Color space : YUV
Chroma subsampling : 4:2:0
Bit depth : 8 bits
Scan type : Progressive
Bits/(Pixel*Frame) : 0.161
Stream size : 274 MiB (93%)
Writing library : x264 core 112

[size=200]Audio[/size]
ID : 2
Format : AAC
Format/Info : Advanced Audio Codec
Format profile : LC
Codec ID : 40
Duration : 43mn 18s
Bit rate mode : Variable
Bit rate : 64.0 Kbps
Maximum bit rate : 87.6 Kbps
Channel(s) : 2 channels
Channel positions : Front: L R
Sampling rate : 32.0 KHz
Compression mode : Lossy
Stream size : 19.8 MiB (7%)
Attack.of.the.Show.2012.10.09.x264.OzQuant.mp4 309.506 MB
Gathering some info...

Register and log in Isohunt and see no captcha anymore!

4000 symbols left
Hash B436B1F074B8B2C2580B16BDDB6A4825AE8ED54C

Related torrents for "Attack of the Show 2012 10 09 x264 OzQuant"

Torrent search:

x264 2012