imdb
rating

8.2
Castle

Castle (2009)

Full description

Castle S05E03 720p WEB-DL DD5 1 H 264-NFHD

Size 1.44 GB   0 seeders     Added 2012-10-10 15:47:03

Stream torrent
Starting‥ You need BitLord! Get it from BitLord.com
To download or stream you need BitLord. Visit them at BitLord.com
- 
http://www.Speed.Cd
 
http://www.Speed.Cd       the fast  and The Hottest Private Tracker on the net

Please Seed back to make the speed Faster!!
 ............ NFO .............
-General
Unique ID                        : 175757898502255449381855568889158933929 (0x8439BD6E98808727AA8161238CA59DA9)
Complete name                    : Castle S05E03 720p WEB-DL DD5.1 H.264-NFHDCastle S05E03 720p WEB-DL DD5.1 H.264-NFHD.mkv
Format                           : Matroska
Format version                   : Version 2
File size                        : 1.34 GiB
Duration                         : 43mn 13s
Overall bit rate                 : 4 440 Kbps
Encoded date                     : UTC 2012-10-09 17:32:38
Writing application              : mkvmerge v5.8.0 ('No Sleep / Pillow') built on Sep  2 2012 15:37:04
Writing library                  : libebml v1.2.3 + libmatroska v1.3.0

Video
ID                               : 1
Format                           : AVC
Format/Info                      : Advanced Video Codec
Format profile                   : High@L3.1
Format settings, CABAC           : No
Format settings, ReFrames        : 2 frames
Codec ID                         : V_MPEG4/ISO/AVC
Duration                         : 43mn 13s
Bit rate                         : 3 968 Kbps
Width                            : 1 280 pixels
Height                           : 720 pixels
Display aspect ratio             : 16:9
Frame rate                       : 23.976 fps
Color space                      : YUV
Chroma subsampling               : 4:2:0
Bit depth                        : 8 bits
Scan type                        : Progressive
Bits/(Pixel*Frame)               : 0.180
Stream size                      : 1.20 GiB (89%)
Title                            : Castle - Season 5, Episode 3: Secret's Safe With Me
Language                         : English
Color primaries                  : BT.709-5, BT.1361, IEC 61966-2-4, SMPTE RP177
Transfer characteristics         : BT.709-5, BT.1361
Matrix coefficients              : BT.709-5, BT.1361, IEC 61966-2-4 709, SMPTE RP177

Audio
ID                               : 2
Format                           : AC-3
Format/Info                      : Audio Coding 3
Mode extension                   : CM (complete main)
Codec ID                         : A_AC3
Duration                         : 43mn 13s
Bit rate mode                    : Constant
Bit rate                         : 384 Kbps
Channel(s)                       : 6 channels
Channel positions                : Front: L C R, Side: L R, LFE
Sampling rate                    : 48.0 KHz
Bit depth                        : 16 bits
Compression mode                 : Lossy
Stream size                      : 119 MiB (9%)
Title                            : Dolby Digital 5.1 @ 384 kbps
Language                         : English
[ www.Speed.Cd ] - Castle S05E03 720p WEB-DL DD5.1 H.264-NFHD/Castle S05E03 720p WEB-DL DD5.1 H.264-NFHD.mkv 1.44 GB
[ www.Speed.Cd ] - Castle S05E03 720p WEB-DL DD5.1 H.264-NFHD/Castle S05E03 720p WEB-DL DD5.1 H.264-NFHD.nfo 5.418 KB
[ www.Speed.Cd ] - Castle S05E03 720p WEB-DL DD5.1 H.264-NFHD/www.speed.cd read me .txt 47 B
Gathering some info...

Register and log in Isohunt and see no captcha anymore!

4000 symbols left
Hash 4a1e7b6dcc9f3645e8fdf9510f6933eae9ca6016

Related torrents for "Castle S05E03 720p WEB-DL DD5 1 H 264-NFHD"

Torrent search:

season 05 hd episode 03 web-dl