imdb
rating

6.5
Here Comes the Boom

Here Comes the Boom (2012)

Action, Comedy

Full description
quality   dvdrip hd

Here Comes the Boom (2012) DVDRip XviD AC3 - TODE

Size 745.15 MB   0 seeders     Added 2012-10-10 16:51:04

Stream torrent
Starting‥ You need BitLord! Get it from BitLord.com
To download or stream you need BitLord. Visit them at BitLord.com
Video\r\nID                                       : 0\r\nFormat                                   : MPEG-4 Visual\r\nFormat profile                           : Advanced Simple@L5\r\nFormat settings, BVOP                    : 1\r\nFormat settings, QPel                    : No\r\nFormat settings, GMC                     : No warppoints\r\nFormat settings, Matrix                  : Default (H.263)\r\nCodec ID                                 : XVID\r\nCodec ID/Hint                            : XviD\r\nDuration                                 : 1h 30mn\r\nBit rate                                 : 1 396 Kbps\r\nWidth                                    : 640 pixels\r\nHeight                                   : 240 pixels\r\nDisplay aspect ratio                     : 2.667\r\nFrame rate                               : 29.970 fps\r\nColor space                              : YUV\r\nChroma subsampling                       : 4:2:0\r\nBit depth                                : 8 bits\r\nScan type                                : Progressive\r\nCompression mode                         : Lossy\r\nBits/(Pixel*Frame)                       : 0.303\r\nStream size                              : 904 MiB (87%)\r\nWriting library                          : XviD 1.2.1 (UTC 2008-12-04)\r\n\r\nAudio\r\nID                                       : 1\r\nFormat                                   : AC-3\r\nFormat/Info                              : Audio Coding 3\r\nMode extension                           : CM (complete main)\r\nCodec ID                                 : 2000\r\nDuration                                 : 1h 30mn\r\nBit rate mode                            : Constant\r\nBit rate                                 : 192 Kbps\r\nChannel(s)                               : 2 channels\r\nChannel positions                        : Front: L R\r\nSampling rate                            : 48.0 KHz\r\nBit depth                                : 16 bits\r\nCompression mode                         : Lossy\r\nStream size                              : 124 MiB (12%)\r\nAlignment                                : Aligned on interleaves\r\nInterleave, duration                     : 33 ms (1.00 video frame)\r\nInterleave, preload duration             : 512 ms
Here Comes the Boom DVDRip XviD AC3 - TODE.wmv 744.989 MB
info.nfo 5.075 KB
Readme.txt 5.075 KB
Gathering some info...

Register and log in Isohunt and see no captcha anymore!

4000 symbols left
Hash DF07C5B1CD40245E87E53387AD2D176640149B89

Related torrents for "Here Comes the Boom (2012) DVDRip XviD AC3 - TODE"

Torrent search:

dvdrip 2012