RIOT 2012 DVDrip H264 AC3 BSBTRG

Size 917.812 MB   0 seeders     Added 2012-10-10 23:52:33

Stream torrent
Starting‥ You need BitLord! Get it from 1BitLord.com
To download or stream you need BitLord. Visit them at BitLord.com
[IMG]image[/IMG]\r\n\r\nNO IMBD INFO AVAILABLE AT THIS TIME\r\n\r\nBRUTAL! VIOLENT! INSANE!\r\n \r\nGang culture on London’s streets is laid bare for all to see, in this stunning new British Film!\r\n \r\nSE1 Welcome to Hell, and the shocking truth of London’s gang culture.\r\n \r\n\r\nWhen wannabe Gangsta Evan falls into dealing drugs all hell breaks loose. With a new baby and no way to pay. His stash is stolen and someone will die!\r\n \r\nSex, drugs and violence take centre stage in a film that is the ‘real deal’ of life in SE1 – London’s Hell.\r\n\r\n\r\nSCREENS..\r\n[IMG]image[/IMG]\r\n[IMG]image[/IMG]\r\n[IMG]image[/IMG]\r\n[IMG]image[/IMG]\r\n[IMG]image[/IMG]\r\n[IMG]image[/IMG]\r\n\r\nFormat                                   : MPEG-4\r\nFormat profile                           : Base Media / Version 2\r\nCodec ID                                 : mp42\r\nFile size                                : 875 MiB\r\nDuration                                 : 1h 29mn\r\nOverall bit rate mode                    : Variable\r\nOverall bit rate                         : 1 361 Kbps\r\nEncoded date                             : UTC 2012-10-08 10:17:27\r\nTagged date                              : UTC 2012-10-08 11:35:16\r\nWriting application                      : HandBrake 0.9.6 2012022800\r\n\r\nVideo\r\nID                                       : 1\r\nFormat                                   : AVC\r\nFormat/Info                              : Advanced Video Codec\r\nFormat profile                           : High@L3.1\r\nFormat settings, CABAC                   : Yes\r\nFormat settings, ReFrames                : 4 frames\r\nCodec ID                                 : avc1\r\nCodec ID/Info                            : Advanced Video Coding\r\nDuration                                 : 1h 29mn\r\nBit rate mode                            : Variable\r\nBit rate                                 : 1 036 Kbps\r\nWidth                                    : 1 280 pixels\r\nHeight                                   : 704 pixels\r\nDisplay aspect ratio                     : 16:9\r\nOriginal display aspect ratio            : 16:9\r\nFrame rate mode                          : Variable\r\nFrame rate                               : 24.000 fps\r\nMinimum frame rate                       : 19.194 fps\r\nMaximum frame rate                       : 24.000 fps\r\nColor space                              : YUV\r\nChroma subsampling                       : 4:2:0\r\nBit depth                                : 8 bits\r\nScan type                                : Progressive\r\nBits/(Pixel*Frame)                       : 0.048\r\nStream size                              : 666 MiB (76%)\r\nWriting library                          : x264 core 120\r\nEncoded date                             : UTC 2012-10-08 10:17:27\r\nTagged date                              : UTC 2012-10-08 11:35:16\r\nColor primaries                          : BT.709-5, BT.1361, IEC 61966-2-4, SMPTE RP177\r\nTransfer characteristics                 : BT.709-5, BT.1361\r\nMatrix coefficients                      : BT.709-5, BT.1361, IEC 61966-2-4 709, SMPTE RP177\r\n\r\nAudio #1\r\nID                                       : 2\r\nFormat                                   : AAC\r\nFormat/Info                              : Advanced Audio Codec\r\nFormat profile                           : LC\r\nCodec ID                                 : 40\r\nDuration                                 : 1h 29mn\r\nBit rate mode                            : Variable\r\nBit rate                                 : 160 Kbps\r\nMaximum bit rate                         : 339 Kbps\r\nChannel(s)                               : 2 channels\r\nChannel positions                        : Front: L R\r\nSampling rate                            : 44.1 KHz\r\nCompression mode                         : Lossy\r\nDelay relative to video                  : -83ms\r\nStream size                              : 103 MiB (12%)\r\nEncoded date                             : UTC 2012-10-08 10:17:27\r\nTagged date                              : UTC 2012-10-08 11:35:14\r\n\r\nAudio #2\r\nID                                       : 3\r\nFormat                                   : AC-3\r\nFormat/Info                              : Audio Coding 3\r\nMode extension                           : CM (complete main)\r\nFormat settings, Endianness              : Big\r\nCodec ID                                 : ac-3\r\nDuration                                 : 1h 29mn\r\nBit rate mode                            : Constant\r\nBit rate                                 : 160 Kbps\r\nChannel(s)                               : 2 channels\r\nChannel positions                        : Front: L R\r\nSampling rate                            : 44.1 KHz\r\nBit depth                                : 16 bits\r\nCompression mode                         : Lossy\r\nDelay relative to video                  : -83ms\r\nStream size                              : 103 MiB (12%)\r\nEncoded date                             : UTC 2012-10-08 10:17:27\r\nTagged date                              : UTC 2012-10-08 11:35:14\r\n\r\n\r\n\r\nTRACKERS..\r\n\r\n[CODE]http://fr33dom.h33t.com:3310/announce \r\n\r\nhttp://exodus.desync.com:6969/announce \r\n\r\nhttp://tracker.ex.ua/announce \r\n\r\nhttp://tracker.torrentbay.to:6969/announce \r\n\r\nhttp://ipv4.tracker.harry.lu/announce \r\n\r\nudp://tracker.1337x.org:80/announce \r\n\r\nudp://fr33dom.h33t.com:3310/announce[/CODE]\r\n\r\nGREETZ TO ALL MEMBERS AND RGs PAST AND PRESENT\r\n\r\nINFOHASH..  249E5937EC3F0BDE45F05828603B3ABF8B02765E\r\n\r\n[img]image[/img]
riot 2012 dvdrip h264 ac3 star1.mp4 917.805 MB
visit us at WWW.Blackstarbt.net.nfo 6.79 KB
Gathering some info...

Register and log in Isohunt and see no captcha anymore!

4000 symbols left
Hash 249E5937EC3F0BDE45F05828603B3ABF8B02765E