Abraham.Lincoln.Vampire.Hunter.2012.DVDRip.XviD-PTpOWeR

Size 750.94 MB   0 seeders     Added 2012-10-11 03:09:14

To download or stream you need BitLord. Visit them at BitLord.com
Format                                   : AVI
 Format/Info                              : Audio Video Interleave
 File size                                : 706 MiB
 Duration                                 : 1h 45mn
 Overall bit rate                         : 938 Kbps
 Writing application                      : VirtualDubMod 1.5.10.2 (build 2540/release)
 Writing library                          : VirtualDub build 32842/release

 Video
 ID                                       : 0
 Format                                   : MPEG-4 Visual
 Format profile                           : Simple@L3
 Format settings, BVOP                    : No
 Format settings, QPel                    : No
 Format settings, GMC                     : No warppoints
 Format settings, Matrix                  : Default (H.263)
 Codec ID                                 : XVID
 Codec ID/Hint                            : XviD
 Duration                                 : 1h 45mn
 Bit rate                                 : 830 Kbps
 Width                                    : 640 pixels
 Height                                   : 272 pixels
 Display aspect ratio                     : 2.35:1
 Frame rate                               : 23.976 fps
 Color space                              : YUV
 Chroma subsampling                       : 4:2:0
 Bit depth                                : 8 bits
 Scan type                                : Progressive
 Compression mode                         : Lossy
 Bits/(Pixel*Frame)                       : 0.199
 Stream size                              : 625 MiB (88%)
 Writing library                          : XviD 1.3.0.dev55

 Audio
 ID                                       : 1
 Format                                   : MPEG Audio
 Format version                           : Version 1
 Format profile                           : Layer 3
 Codec ID                                 : 55
 Codec ID/Hint                            : MP3
 Duration                                 : 1h 45mn
 Bit rate mode                            : Constant
 Bit rate                                 : 96.0 Kbps
 Channel(s)                               : 2 channels
 Sampling rate                            : 44.1 KHz
 Compression mode                         : Lossy
 Stream size                              : 72.1 MiB (10%)
 Alignment                                : Aligned on interleaves
 Interleave, duration                     : 26 ms (0.63 video frame)
 Interleave, preload duration             : 522 ms
 Writing library                          : LAME3.99.5
http://www.imdb.com/title/tt1611224/
Abraham.Lincoln.Vampire.Hunter.2012.DVDRip.XviD-PTpOWeR/Abraham.Lincoln.Vampire.Hunter.2012.DVDRip.XviD-PTpOWeR.rar 750.781 MB
Abraham.Lincoln.Vampire.Hunter.2012.DVDRip.XviD-PTpOWeR/few88450.jpg 158.708 KB
Abraham.Lincoln.Vampire.Hunter.2012.DVDRip.XviD-PTpOWeR/READ ME.txt 409 B
Gathering some info...

Register and log in Isohunt and see no captcha anymore!

4000 symbols left
Hash b9dbdd4a0a4c12ebb7801cc9d7373fc5155a0555