imdb
rating

8.6
Sons of Anarchy

Sons of Anarchy (2008)

Full description

Sons of Anarchy S05E04 720p WEB-DL DD5 1 H 264-CtrlHD

Size 1.568 GB   0 seeders     Added 2012-10-11 06:42:55

Stream torrent
Starting‥ You need BitLord! Get it from 1BitLord.com
To download or stream you need BitLord. Visit them at BitLord.com
- 
http://www.Speed.Cd
 
http://www.Speed.Cd       the fast  and The Hottest Private Tracker on the net

Please Seed back to make the speed Faster!!
 ............ NFO .............
-Video
 ID : 1
 Format : AVC
 Format/Info : Advanced Video Codec
 Format profile : High@L3.1
 Format settings, CABAC : No
 Format settings, ReFrames : 2 frames
 Format settings, GOP : N=1
 Codec ID : V_MPEG4/ISO/AVC
 Duration : 45mn 36s
 Bit rate : 4 110 Kbps
 Width : 1 280 pixels
 Height : 718 pixels
 Display aspect ratio : 16:9
 Frame rate : 23.976 fps
 Color space : YUV
 Chroma subsampling : 4:2:0
 Bit depth : 8 bits
 Scan type : Progressive
 Bits/(Pixel*Frame) : 0.187
 Stream size : 1.31 GiB (90%)
 Language : English
 Default : Yes
 Forced : No
 Color primaries : BT.709-5, BT.1361, IEC 61966-2-4, SMPTE RP177
 Transfer characteristics : BT.709-5, BT.1361
 Matrix coefficients : BT.709-5, BT.1361, IEC 61966-2-4 709, SMPTE RP177

 Audio
 ID : 2
 Format : AC-3
 Format/Info : Audio Coding 3
 Mode extension : CM (complete main)
 Format settings, Endianness : Big
 Codec ID : A_AC3
 Duration : 45mn 36s
 Bit rate mode : Constant
 Bit rate : 384 Kbps
 Channel(s) : 6 channels
 Channel positions : Front: L C R, Side: L R, LFE
 Sampling rate : 48.0 KHz
 Bit depth : 16 bits
 Compression mode : Lossy
 Stream size : 125 MiB (8%)
 Language : English
 Default : Yes
 Forced : No		
[ www.Speed.Cd ] - Sons.of.Anarchy.S05E04.720p.WEB-DL.DD5.1.H.264-CtrlHD/Sons.of.Anarchy.S05E04.Stolen.Huffy.720p.WEB-DL.DD5.1.H.264-CtrlHD.mkv 1.568 GB
[ www.Speed.Cd ] - Sons.of.Anarchy.S05E04.720p.WEB-DL.DD5.1.H.264-CtrlHD/Sons.of.Anarchy.S05E04.Stolen.Huffy.720p.WEB-DL.DD5.1.H.264-CtrlHD.nfo 1.226 KB
[ www.Speed.Cd ] - Sons.of.Anarchy.S05E04.720p.WEB-DL.DD5.1.H.264-CtrlHD/www.Speed.Cd read me .txt 47 B
Gathering some info...

Register and log in Isohunt and see no captcha anymore!

4000 symbols left
Hash c084e5d0275abaf15ea9f8737af4e621387052d5

Related torrents for "Sons of Anarchy S05E04 720p WEB-DL DD5 1 H 264-CtrlHD"

Torrent search:

season 05 episode 04 hd web-dl