imdb
rating

7.1
Find Me Guilty

Find Me Guilty (2006)

Action, Comedy, Crime, Drama

Full description
quality   dvdrip x264 hd bd fullhd cam hdtv

Find Me Guilty 2006 BRRip 720p x264 AAC [VX] [P2PDL]

Size 769.211 MB   5 seeders     Added 2012-10-11 10:41:44

Stream torrent
Starting‥ You need BitLord! Get it from BitLord.com
To download or stream you need BitLord. Visit them at BitLord.com
[color=red]Cover:[/color] 
[img]image[/img]
[color=red]Release Title:[/color] [color=blue]Find Me Guilty (2006)[/color]
[color=red]Ratings:[/color] [color=green]7.0/10[/color] | 
[url]http://www.imdb.com/title/tt0419749/[/url]
[color=red]Plot:[/color] [color=orange]Based on the true story of Jack DiNorscio, a mobster who defended himself in court for what would be the longest mafia trial in U.S. history.[/color]
[color=red]Director:[/color] [color=black]Sidney Lumet[/color]
[color=red]Writer:[/color] [color=black]Sidney Lumet, T.J. Mancini[/color]
[color=red]Stars:[/color] [color=black]Vin Diesel, Peter Dinklage and Ron Silver[/color]
[color=red]Genres:[/color] [color=black]Comedy | Crime | Drama[/color]
[color=red]Rating:[/color] [color=black]Rated R for strong language and some violence.[/color]
[code]General
Complete name : Find Me Guilty 2006 BRRip 720p x264 AAC [VX] [P2PDL].mp4
Format : MPEG-4
Format profile : Base Media / Version 2
File size : 725 MiB
Duration : 2h 4mn
Overall bit rate : 813 Kbps
Source : Find.Me.Guilty.2006.720p.BluRay.X264-AMIABLE (Thanks!)
Video
ID : 1
Format : AVC
Format/Info : Advanced Video Codec
Duration : 2h 4mn
Bit rate : 712 Kbps
Width : 1 280 pixels
Height : 720 pixels
Display aspect ratio : 16:9
Frame rate mode : Variable
Frame rate : 23.976 fps
Stream size : 635 MiB (88%)
Writing library : x264 core 125
Audio
ID : 2
Format : AAC
Format/Info : Advanced Audio Codec
Format profile : LC
Duration : 2h 4mn
Bit rate mode : Variable
Bit rate : 96.0 Kbps
Channel(s) : 2 channels
Channel positions : Front: L R
Sampling rate : 48.0 KHz
Stream size : 85.6 MiB (12%)
Language : English
Subtitle : Yes (English)[/code]
[color=red]Screens:[/color]
[img]image[/img]
[img]image[/img]
[img]image[/img]
[img]image[/img]
[img]image[/img]
------------------------------------------------------------------------
[code]Notes:
* Check sample to be sure.
* Best played on VLC Media Player.
* Install shark007 codecs in case of any kind of problem in playback (For non-VLC Media Player users).
* Alternatively, install Core AVC codecs, the fastest decoder that there is coupled with Community Center Codec Pack and play on Windows Media Player Classic.
* Read NFO.
* Help in seeding this torrent as much as you can. 
Greets to: srkfan, VYTO, MgB, staff members at ExtraTorrent, TPB, H33T, KAT, 1337x, PublicHD, Ahashare,
SilverTorrent, TorrentMafia, P2PDL, and all others
Encoder Notes: Looking For Early Access To Anything You Can Provide DVDScr, R5, DVDRips, BluRay, Direct Audio, Early Music
Releases, Seedboxes, Links, Dedicated Servers anything u can provide, Advance / Promo CDs/DVDs. If You Got anything to
offer contact me at "contact@tinym.eu"[/code]
[URL=http://www.facebook.com/p2pdl][IMG]image[/IMG][/URL]
[b][color=blue]Enhanced for best viewing experience. Enjoy![/b][/color]
Find Me Guilty [2006] BRRip 720p x264 AAC [VX] [P2PDL]/Find Me Guilty 2006 BRRip 720p x264 AAC [VX] [P2PDL].mp4 760.463 MB
Find Me Guilty [2006] BRRip 720p x264 AAC [VX] [P2PDL]/Find Me Guilty 2006 BRRip 720p x264 AAC [VX] [P2PDL].srt 138.264 KB
Find Me Guilty [2006] BRRip 720p x264 AAC [VX] [P2PDL]/Info.nfo 12.606 KB
Gathering some info...

Register and log in Isohunt and see no captcha anymore!

4000 symbols left
Hash 162f670928ad0f357791f2e4b5a5bbc1c6220a6f

Related torrents for "Find Me Guilty 2006 BRRip 720p x264 AAC [VX] [P2PDL]"

Torrent search:

2006 x264 hd bd