imdb
rating

6.5
Savages

Savages (2012)

Crime, Drama, Thriller

Full description

Savages 2012 Dutch subtitle

Size 821.525 KB   0 seeders     Added 2012-10-11 20:47:53

Stream torrent
Starting‥ You need BitLord! Get it from BitLord.com
To download or stream you need BitLord. Visit them at BitLord.com
Savages.2012  

Full File Size after unpack :800MB

Subtitle:Dutch
Sources:cRAVERS

Video: 688x320 @ 1500Kbps 2Pass
Audio: English Line Audio AC3 2.0 @ 128Kbps
Sample: Yes, included


http://www.imdb.com/title/tt1615065/


Complete name : Savages.2012
Format : AVI
Format/Info : Audio Video Interleave
File size : 800MB
Duration : 2h 5mn
Overall bit rate : 1 661 Kbps
Writing library : VirtualDub build 34703/release

Video
ID : 0
Format profile : Advanced Simple@L5

Bit rate : 1 521 Kbps
Width : 688 pixels
Height : 320 pixels
Frame rate : 29.970 fps
Stream size : 1.33 GiB (92%)

Audio
ID : 

1Bit rate : 128 Kbps
Channel(s) : 2 channels
Channel positions : Front: L R
Sampling rate : 48.0 KHz
Stream size : 115 MiB (8%)

Plot:
Pot growers Ben and Chon face off against the Mexican
drug cartel who kidnapped their shared girlfriend.


Director: Oliver Stone
Writers: Shane Salerno (screenplay), Don Winslow (screenplay)
Stars: Aaron Johnson, Taylor Kitsch and Blake Lively
Savages.2012.NL.Dutch.subtitle.HD.Rip.avi{cravers}.rar 821.525 KB
Gathering some info...

Register and log in Isohunt and see no captcha anymore!

4000 symbols left
Hash 626d684fe9b4e64234af05f3dbfad1718ef042da

Related torrents for "Savages 2012 Dutch subtitle"

Torrent search:

german 2012