imdb
rating

5.5
Firehouse Dog

Firehouse Dog (2007)

Action, Comedy, Family

Full description
quality   cam screener dvdrip

FIREHOUSE DOG-[DVDRIP][ENG]-KIDZCORNER

Size 732.413 MB   0 seeders     Added 2012-10-11 21:40:27

Stream torrent
Starting‥ You need BitLord! Get it from 1BitLord.com
10
To download or stream you need BitLord. Visit them at BitLord.com
.
..............................Site Info...........................

 -   http://www.scenetime.com  *_*    

Scenetime .Always on time . friendly online private torrent community ..

     We care to share . Join us on  http://www.scenetime.com 

    Be the first to get new release at  http://www.scenetime.com

        Seed back for speed


...................................NFO:.................................................http://www.imdb.com/title/tt0476995/

Directed by 	Todd Holland
Produced by 	Michael J. Maschio
Written by 	Claire-Dee Lim
Mike Werb
Michael Colleary
Starring 	Josh Hutcherson
Bruce Greenwood
Dash Mihok
Steven Culp
Bill Nunn
Music by 	Jeff Cardoni
Cinematography 	Victory Hammer
Editing by 	Scott J. Wallace
Studio 	Regency Enterprises
Distributed by 	20th Century Fox
Release date(s) 	April 4, 2007 (2007-04-04)
Running time 	111 minutes
Country 	United States
Language 	English


Video
ID                               : 0
Format                           : MPEG-4 Visual
Format profile                   : Simple@L3
Format settings, BVOP            : No
Format settings, QPel            : No
Format settings, GMC             : No warppoints
Format settings, Matrix          : Default (H.263)
Codec ID                         : XVID
Codec ID/Hint                    : XviD
Duration                         : 1h 46mn
Bit rate                         : 778 Kbps
Width                            : 688 pixels
Height                           : 368 pixels
Display aspect ratio             : 1.870
Frame rate                       : 25.000 fps
Resolution                       : 8 bits
Colorimetry                      : 4:2:0
Scan type                        : Progressive
Bits/(Pixel*Frame)               : 0.123
Stream size                      : 593 MiB (85%)
Writing library                  : XviD 1.2.0.dev47 (UTC 2006-11-01)

Audio
ID                               : 1
Format                           : MPEG Audio
Format version                   : Version 1
Format profile                   : Layer 3
Mode                             : Joint stereo
Codec ID                         : 55
Codec ID/Hint                    : MP3
Duration                         : 1h 46mn
Bit rate mode                    : Constant
Bit rate                         : 128 Kbps
Channel(s)                       : 2 channels
Sampling rate                    : 48.0 KHz
Stream size                      : 97.6 MiB (14%)
Alignment                        : Aligned on interleaves
Interleave, duration             : 40 ms (1.00 video frame)
Interleave, preload duration     : 504 ms
Writing library                  : LAME3.97 
Encoding settings                : -m j -V 4 -q 2 -lowpass 17 -b 128		
FHD.avi 732.41 MB
fhd.nfo 2.343 KB
Read this before playing this Video.txt 222 B
Gathering some info...

Register and log in Isohunt and see no captcha anymore!

4000 symbols left
Hash CABE72BF78B3B4CBF6F0E3C6DACE8F71C72998D0

Related torrents for "FIREHOUSE DOG-[DVDRIP][ENG]-KIDZCORNER"

Torrent search:

dvdrip english