Scarpette Rosse - Pressburger - Powell (1948) [DivX - Italian Mp3] MIRCrew [TNT Village]

Size 1.184 GB   4 seeders     Added 2012-10-12 19:40:29

Stream torrent
Starting‥ You need BitLord! Get it from 1BitLord.com
To download or stream you need BitLord. Visit them at BitLord.com
Scarpette Rosse - Pressburger - Powell (1948) [DivX - Italian Mp3] MIRCrew [TNT Village]


[b][color=red][IMG]image[/IMG]

Scarpette Rosse (1948)


[URL=http://www.imdb.com/title/tt0040725/][IMG]image[/IMG][/URL] 

[IMG]image[/IMG]

[IMG]image[/IMG]

Scarpette rosse
Titolo originale 	The Red Shoes
Lingua originale 	inglese / francese / russo
Paese 	Gran Bretagna
Anno 	1948
Durata 	133 min
Colore 	colore Technicolor
Audio 	sonoro Mono (Western Electric Recording)

È il più grande successo della coppia Powell-Pressburger anche se forse non la loro opera maggiore. Considerato il miglior ballet film della storia del cinema, ma anche la più esemplare 

espressione del melodramma cinematografico, è diventato un vero cult movie, amato da spettatori e spettatrici commossi di mezzo mondo, ma anche da celebri registi (Scorsese, Coppola, De 

Palma) e raffinati cinéphiles. "Ammantandolo con i colori smaglianti del melodramma, [i registi] fanno digerire al pubblico un assunto incredibile: il fatto che l'arte sia qualcosa per cui 

si può morire" (E. Martini). È nello stesso tempo romantico ed espressionista, una fantasticheria e un incubo, un dramma psicologico e una favola, un'anomala miscela di narrativa popolare, 

cattivo gusto, abuso di stereotipi e sperimentazione visiva, ribaltamento delle convenzioni, vertiginosa reinvenzione della realtà. Fotografia di Jack Cardiff. Ebbe 2 premi Oscar: musica di 

Brian Easdale, scene di Hein Heckroth. Restaurato nel 2010. 

[IMG]image[/IMG]

Rapporto 	1,37 : 1
Genere 	musicale
Regia 	Michael Powell e Emeric Pressburger
Soggetto 	Hans Christian Andersen
Sceneggiatura 	Michael Powell e Emeric Pressburger
Fotografia 	Jack Cardiff
Montaggio 	Reginald Mills
Musiche 	Brian Easdale
Scenografia 	Hein Heckroth e Arthur Lawson

[IMG]image[/IMG]

[IMG]image[/IMG]

[IMG]image[/IMG]



[IMG]image[/IMG]

 Anton Walbrook: Boris Lermontov
 Marius Goring: Julian Craster
 Moira Shearer: Victoria Page
 Robert Helpmann: Ivan Boleslawsky
 Léonide Massine: Grischa Ljubov
 Albert Basserman: Ratov
 Esmond Knight: Livy
 Ludmilla Tchérina: Boronskaja
 Marie Rambert: Madame Rambert
 Jean Short: Terry
 Gordon Littmann: Ike
 Austin Trevor: professor Palmer

Doppiatori italiani

 Sandro Ruffini: Anton Walbrook
 Rosetta Calavetta: Moira Shearer
 Gualtiero De Angelis: Marius Goring
 Stefano Sibaldi: Robert Helpman
 Adolfo Geri: Léonide Massine
 Olinto Cristina: Albert Basserman
 Lydia Simoneschi: Ludmilla Tcherina
 Giorgio Capecchi: Esmond Knight

[IMG]image[/IMG]

Un giovane compositore ed una giovane ballerina incontrano un non più giovanissimo produttore di spettacoli teatrali… vuoi che non siano tutti dei geni bruciati dal sacro fuoco? Beh per 

dimostrarlo viene allestito uno spettacolo tutto nuovo, Scarpette rosse appunto… ma vuoi che una cosa non tiri l’altra e i due giovani si innamorino?... 


 

[IMG]image[/IMG]

General
Complete name : Scarpette Rosse - Pressburger - Powell (1948).avi
Format : AVI
Format/Info : Audio Video Interleave
File size : 1.10 GiB
Duration : 2h 7mn
Overall bit rate : 1 238 Kbps
Writing library : VirtualDub build 16189/release

Video
ID : 0
Format : DivX 5
Format settings, BVOP : 1
Format settings, QPel : No
Format settings, GMC : No warppoints
Format settings, Matrix : Default (H.263)
Muxing mode : Packed bitstream
Codec ID : DX50
Codec ID/Hint : DivX 5
Duration : 2h 7mn
Bit rate : 1 100 Kbps
Width : 616 pixels
Height : 448 pixels
Display aspect ratio : 1.375
Frame rate : 25.000 fps
Color space : YUV
Chroma subsampling : 4:2:0
Bit depth : 8 bits
Scan type : Progressive
Compression mode : Lossy
Bits/(Pixel*Frame) : 0.159
Stream size : 1 003 MiB (89%)
Writing library : DivX 5.1.0 (UTC 2003-09-02)

Audio
ID : 1
Format : MPEG Audio
Format version : Version 1
Format profile : Layer 3
Codec ID : 55
Codec ID/Hint : MP3
Duration : 2h 7mn
Bit rate mode : Constant
Bit rate : 128 Kbps
Channel(s) : 2 channels
Sampling rate : 44.1 KHz
Compression mode : Lossy
Delay relative to video : 20ms
Stream size : 117 MiB (10%)
Alignment : Split accross interleaves
Interleave, duration : 40 ms (1.00 video frame)
Interleave, preload duration : 500 ms


[IMG]image[/IMG]

[/color][/b]
Scarpette Rosse - Pressburger - Powell (1948).avi 1.184 GB
Gathering some info...

Register and log in Isohunt and see no captcha anymore!

4000 symbols left
Hash CF1A5030FBFAC057C78420694D9F47EBC8CD40AD