imdb
rating

6.5
Stolen

Stolen

Full description

Stolen (2012) DVDR PAL - BILBO

Size 4.652 GB   0 seeders     Added 2012-10-12 20:53:08

Stream torrent
Starting‥ You need BitLord! Get it from BitLord.com
To download or stream you need BitLord. Visit them at BitLord.com
Video
 ID: 0
 Format: MPEG-4 Visual
 Format profile: Advanced Simple@L5
 Format settings, BVOP: 2
 Format settings, QPel: No
 Format settings, GMC: No warppoints
 Format settings, Matrix: Default (MPEG)
 Codec ID: XVID
 Codec ID/Hint: XviD
 Duration: 1h 31mn
 Bit rate: 1 749 Kbps
 Width: 720 pixels
 Height: 400 pixels
 Display aspect ratio: 16:9
 Frame rate: 25.000 fps
 Color space: YUV
 Chroma subsampling: 4:2:0
 Bit depth: 8 bits
 Scan type: Interlaced
 Scan order: Bottom Field First
 Compression mode: Lossy
 Bits/(Pixel*Frame): 0.243
 Stream size: 1.12 GiB (82%)
 Writing library: XviD 1.2.1 (UTC 2008-12-04)
Audio
 ID: 1
 Format: AC-3
 Format/Info: Audio Coding 3
 Mode extension: CM (complete main)
 Format settings, Endianness: Big
 Codec ID: 2000
 Duration: 1h 31mn
 Bit rate mode: Constant
 Bit rate: 384 Kbps
 Channel(s): 6 channels
 Channel positions: Front: L C R, Side: L R, LFE
 Sampling rate: 48.0 KHz
 Bit depth: 16 bits
 Compression mode: Lossy
 Delay relative to video: 1s 700ms
 Stream size: 252 MiB (18%)
 Alignment: Split accross interleaves
 Interleave, duration: 40 ms (1.00 video frame)
 Interleave, preload duration: 500 ms
VIDEO_TS/VIDEO_TS.BUP 6.144 KB
VIDEO_TS/VIDEO_TS.IFO 6.144 KB
VIDEO_TS/VTS_01_0.BUP 12.288 KB
Gathering some info...

Register and log in Isohunt and see no captcha anymore!

4000 symbols left
Hash 2F6981BB69C01980155CDF2A952E90504FF7C715

Related torrents for "Stolen (2012) DVDR PAL - BILBO"

Torrent search:

dvdr 2012