Luis

Luis (2003)

Comedy

Full description

Nemici... per la pelle - Il Tatuato - Luis De Funes (1968) [DivX - Italian Mp3] MIRCrew [TNT Village]

Size 750.088 MB   2 seeders     Added 2012-10-12 23:20:19

Stream torrent
Starting‥ You need BitLord! Get it from BitLord.com
To download or stream you need BitLord. Visit them at BitLord.com
Nemici... per la pelle - Il Tatuato - Luis De Funes (1968) [DivX - Italian Mp3] MIRCrew [TNT Village]


[color=green][IMG]image[/IMG]

*********************************************

[URL=http://www.imdb.it/title/tt0063674/][IMG]image[/IMG][/URL]

Nemici... per la pelle - Il Tatuato - Luis De Funes (1968)

[IMG]image[/IMG]

[IMG]image[/IMG]

[SIZE=5]Titolo Originale: LE TATOUÉ
Regia: Denys De La Patellière
Interpreti: Jean Gabin, Louis de Funès, Paul Marcey, Yves Barsacq
Durata: h 1.29
Nazionalità: Francia, Italia 1968
Genere: commedia
Al cinema nel Febbraio 1968

[IMG]image[/IMG]

[IMG]image[/IMG]

[IMG]image[/IMG]

[IMG]image[/IMG]

Jean Gabin, Louis de Funès, Paul Mercey, Yves Barsacq, Pierre Tornade, Jean-Pierre Darras, Joe Warfield, Donald J. von Kurtz.


[IMG]image[/IMG]

Il conte Jean-Louis de Montignac, ex colonnello della legione straniera, ha un Modigliani tatuato sulla schiena. Un antiquario vorrebbe entrarne in possesso, anzi ha già venduto la pelle 

del conte prima ancora di entrarne in possesso. In cambio però de Montignac vuole che il mercante gli restauri la sua casa in campagna, che è in realtà un enorme castello in rovina. 

[IMG]image[/IMG]


[IMG]image[/IMG]

General
Complete name : Nemici... per la pelle - Il Tatuato - Luis De Funes (1968).avi
Format : AVI
Format/Info : Audio Video Interleave
File size : 715 MiB
Duration : 1h 26mn
Overall bit rate : 1 161 Kbps
Writing application : Nandub v1.0rc2
Writing library : Nandub build 1852/release

Video
ID : 0
Format : MPEG-4 Visual
Format settings, BVOP : Yes
Format settings, QPel : No
Format settings, GMC : No warppoints
Format settings, Matrix : Default (H.263)
Codec ID : DX50
Codec ID/Hint : DivX 5
Duration : 1h 26mn
Bit rate : 1 020 Kbps
Width : 704 pixels
Height : 304 pixels
Display aspect ratio : 2.35:1
Frame rate : 25.000 fps
Color space : YUV
Chroma subsampling : 4:2:0
Bit depth : 8 bits
Scan type : Progressive
Compression mode : Lossy
Bits/(Pixel*Frame) : 0.191
Stream size : 629 MiB (88%)
Writing library : DivX 5.0.2 (UTC 2002-05-16)

Audio
ID : 1
Format : MPEG Audio
Format version : Version 1
Format profile : Layer 3
Mode : Joint stereo
Mode extension : MS Stereo
Codec ID : 55
Codec ID/Hint : MP3
Duration : 1h 26mn
Bit rate mode : Constant
Bit rate : 128 Kbps
Channel(s) : 2 channels
Sampling rate : 48.0 KHz
Compression mode : Lossy
Stream size : 78.8 MiB (11%)
Alignment : Aligned on interleaves
Interleave, duration : 24 ms (0.60 video frame)


[/color]
Nemici... per la pelle - Il Tatuato - Luis De Funes (1968).avi 750.088 MB
Gathering some info...

Register and log in Isohunt and see no captcha anymore!

4000 symbols left
Hash EF871B32D88992A3038F7460089C40406F5A80CF

Related torrents for "Nemici... per la pelle - Il Tatuato - Luis De Funes (1968) [DivX - Italian Mp3] MIRCrew [TNT Village]"

Torrent search:

italian 1968