imdb
rating

7.9
The Vampire Diaries

The Vampire Diaries (2009)

Full description

The Vampire Diaries S04E01 720p WEB-DL DD5 1 H 264-KiNGS

Size 1.4 GB   0 seeders     Added 2012-10-13 11:41:06

Stream torrent
Starting‥ You need BitLord! Get it from BitLord.com
To download or stream you need BitLord. Visit them at BitLord.com
- 
http://www.Speed.Cd
 
http://www.Speed.Cd       the fast  and The Hottest Private Tracker on the net

Please Seed back to make the speed Faster!!
 ............ NFO .............
-General
Unique ID                                : 226686468030479107190277336301745899500 (0xAA8A39C5F336086ABAF44FDC5CFA87EC)
Complete name                            : D:iTunesTV ShowsThe Vampire DiariesThe.Vampire.Diaries.S04E01.720p.WEB-DL.DD5.1.H.264-KiNGSThe.Vampire.Diaries.S04E01.720p.WEB-DL.DD5.1.H.264-KiNGS.mkv
Format                                   : Matroska
Format version                           : Version 2
File size                                : 1.30 GiB
Duration                                 : 42mn 30s
Overall bit rate                         : 4 392 Kbps
Encoded date                             : UTC 2012-10-12 08:37:10
Writing application                      : mkvmerge v5.8.0 ('No Sleep / Pillow') built on Sep  2 2012 15:37:04
Writing library                          : libebml v1.2.3 + libmatroska v1.3.0

Video
ID                                       : 1
Format                                   : AVC
Format/Info                              : Advanced Video Codec
Format profile                           : High@L3.1
Format settings, CABAC                   : No
Format settings, ReFrames                : 2 frames
Codec ID                                 : V_MPEG4/ISO/AVC
Duration                                 : 42mn 30s
Bit rate                                 : 3 921 Kbps
Width                                    : 1 280 pixels
Height                                   : 720 pixels
Display aspect ratio                     : 16:9
Frame rate mode                          : Constant
Frame rate                               : 23.976 fps
Color space                              : YUV
Chroma subsampling                       : 4:2:0
Bit depth                                : 8 bits
Scan type                                : Progressive
Bits/(Pixel*Frame)                       : 0.177
Stream size                              : 1.16 GiB (89%)
Language                                 : English
Default                                  : Yes
Forced                                   : No
Color primaries                          : BT.709
Transfer characteristics                 : BT.709
Matrix coefficients                      : BT.709

Audio
ID                                       : 2
Format                                   : AC-3
Format/Info                              : Audio Coding 3
Mode extension                           : CM (complete main)
Format settings, Endianness              : Big
Codec ID                                 : A_AC3
Duration                                 : 42mn 30s
Bit rate mode                            : Constant
Bit rate                                 : 384 Kbps
Channel(s)                               : 6 channels
Channel positions                        : Front: L C R, Side: L R, LFE
Sampling rate                            : 48.0 KHz
Bit depth                                : 16 bits
Compression mode                         : Lossy
Stream size                              : 117 MiB (9%)
Language                                 : English
Default                                  : Yes
Forced                                   : No
The.Vampire.Diaries.S04E01.720p.WEB-DL.DD5.1.H.264-KiNGS.mkv 1.4 GB
The.Vampire.Diaries.S04E01.720p.WEB-DL.DD5.1.H.264-KiNGS.nfo 3.204 KB
www.Speed.Cd read me .txt 47 B
Gathering some info...

Register and log in Isohunt and see no captcha anymore!

4000 symbols left
Hash BFC8B5398B3A6132CDD396F68FDFB9132754DBE2

Related torrents for "The Vampire Diaries S04E01 720p WEB-DL DD5 1 H 264-KiNGS"

Torrent search:

episode 01 season 04 hd web-dl