The Man from Planet X - L'uomo dal pianeta X (1951) [DivX - English Mp3 - Sub Italian] MIRCrew [TNT Village]

Size 426.629 MB   4 seeders     Added 2012-10-13 20:00:14

Stream torrent
Starting‥ You need BitLord! Get it from BitLord.com
To download or stream you need BitLord. Visit them at BitLord.com
The Man from Planet X - L'uomo dal pianeta X (1951) [DivX - English Mp3 - Sub Italian] MIRCrew [TNT Village]


[color=#660000][b][IMG]image[/IMG]

[URL=http://www.imdb.it/title/tt0043778/][IMG]image[/IMG][/URL] 

The Man from Planet X - L'uomo dal pianeta X (1951)


[IMG]image[/IMG]

Produzione: 1951 - USA, United Artists, b/n, 70 min.
Regia: Edgar G. Ulmer
Sceneggiatura: Aubrey Wisberg e Jack Pollexfen
Effetti speciali: Andy Anderson, Howard Weeks e (non accreditato) Jack Rabin
Musica: Charles Koff


[IMG]image[/IMG]


[IMG]image[/IMG]

Robert Clarke, Margaret Field, William Schallert, Raymond Bond, Roy Engel, Charles Davis, David Ormont, Gilbert Fallman, Tom Daly, June Jeffery

SI RINGRAZIA PER LA RECENSIONE TRATTA DA

[IMG]image[/IMG]

In contrapposizione alla tendenza del periodo, il soggetto del film presenta la figura dell'alieno come un "diverso", non ostile, ma anzi bisognoso d'aiuto, anticipando temi che saranno poi 

sviluppati a partire dagli anni '70 in film come L'uomo che cadde sulla Terra (1976), E.T. l'extraterrestre (1982), Fratello di un altro pianeta (1984) e Starman (1984).
Edgar Ulmer riesce abilmente a sfuggire alle convenzioni del genere (in particolare, non sembra dare molto rilievo alla immancabile parentesi sentimentale tra il giovane reporter e la 

ragazza contesa allo scienziato "cattivo") e punta tutto sull'alieno facendolo quasi interprete di una tristezza cosmica con quel suo volto impassibile da maschera africana inquadrato tra 

ombre e sfondi nebbiosi.
The Man from Planet X, pur realizzato con pochissimi mezzi e in tempi record (sei giorni) riciclando il set cinematografico di Giovanna d'Arco, è oggi considerato un piccolo classico del 

genere.



[IMG]image[/IMG]

Poiché il suo pianeta sta morendo per effetto di una glaciazione, un alieno scende sulla Terra per verificare se le condizioni ambientali siano adatte alla sopravvivenza della sua razza. Le 

sue intenzioni non sono aggressive: in fondo cerca soltanto aiuto per salvare la sua gente; ma dagli uomini riceve solo incomprensione, e dai militari ...

Storyline

To study a rogue planet heading for a near-miss with Earth, Prof. Elliot sets up an observatory on the foggy moors of a remote Scottish island, with his pretty daughter and Dr. Mears, a 

former student with a shady past. Soon after arrival of reporter John Lawrence, a ship from Planet X just happens to land near the observatory. Is the visitor (who actually looks alien) 

benevolent? What are Mears' real motives for trying to communicate with it? 

[IMG]image[/IMG]

[IMG]image[/IMG]

[IMG]image[/IMG]

General
Complete name : The Man from Planet X - L'uomo dal pianeta X (1951) Eng Sub Ita.avi
Format : AVI
Format/Info : Audio Video Interleave
File size : 407 MiB
Duration : 1h 7mn
Overall bit rate : 839 Kbps
Writing library : VirtualDub-MPEG2 build 18264/release

Video
ID : 0
Format : MPEG-4 Visual
Format settings, BVOP : 1
Format settings, QPel : No
Format settings, GMC : No warppoints
Format settings, Matrix : Default (H.263)
Muxing mode : Packed bitstream
Codec ID : DX50
Codec ID/Hint : DivX 5
Duration : 1h 7mn
Bit rate : 781 Kbps
Width : 352 pixels
Height : 288 pixels
Display aspect ratio : 1.222
Frame rate : 25.000 fps
Standard : PAL
Color space : YUV
Chroma subsampling : 4:2:0
Bit depth : 8 bits
Scan type : Progressive
Compression mode : Lossy
Bits/(Pixel*Frame) : 0.308
Stream size : 379 MiB (93%)
Writing library : DivX 5.1.1 (Maupiti) (UTC 2003-11-19)

Audio
ID : 1
Format : MPEG Audio
Format version : Version 2
Format profile : Layer 3
Mode : Joint stereo
Mode extension : Intensity Stereo + MS Stereo
Codec ID : 55
Codec ID/Hint : MP3
Duration : 1h 7mn
Bit rate mode : Constant
Bit rate : 48.0 Kbps
Channel(s) : 2 channels
Sampling rate : 22.05 KHz
Compression mode : Lossy
Stream size : 23.2 MiB (6%)
Alignment : Split accross interleaves
Interleave, duration : 40 ms (1.00 video frame)
Interleave, preload duration : 500 ms




 [IMG]image[/IMG]


[/color][/b]
The Man from Planet X - L'uomo dal pianeta X (1951) Eng Sub Ita.avi 426.629 MB
Gathering some info...

Register and log in Isohunt and see no captcha anymore!

4000 symbols left
Hash 934B7B6D7C2266CBDCB7BD47FA3195C283390D6C

Related torrents for "The Man from Planet X - L'uomo dal pianeta X (1951) [DivX - English Mp3 - Sub Italian] MIRCrew [TNT Village]"

Torrent search:

italian english 1951