Bellator.Fighting.Championships.76.Xvid.Mp3.DoN,RSN

Size 1.071 GB   0 seeders     Added 2012-10-13 21:04:19

Stream torrent
Starting‥ You need BitLord! Get it from BitLord.com
To download or stream you need BitLord. Visit them at BitLord.com

[img]image[/img]
[img]image[/img]

General
Complete name : C:UsersIanUPLOADSfilesBellator.Fighting.Championships.76.Xvid.Mp3.DoN,RSN.avi
Format : AVI
Format/Info : Audio Video Interleave
File size : 1 022 MiB
Duration : 2h 11mn
Overall bit rate mode : Variable
Overall bit rate : 1 085 Kbps

Video
ID : 0
Format : MPEG-4 Visual
Format profile : Advanced Simple@L5
Format settings, BVOP : 2
Format settings, QPel : No
Format settings, GMC : No warppoints
Format settings, Matrix : Default (H.263)
Codec ID : XVID
Codec ID/Hint : XviD
Duration : 2h 11mn
Bit rate : 947 Kbps
Width : 624 pixels
Height : 352 pixels
Display aspect ratio : 16:9
Frame rate : 29.970 fps
Color space : YUV
Chroma subsampling : 4:2:0
Bit depth : 8 bits
Scan type : Progressive
Compression mode : Lossy
Bits/(Pixel*Frame) : 0.144
Stream size : 891 MiB (87%)
Writing library : XviD 1.2.1 (UTC 2008-12-04)

Audio
ID : 1
Format : MPEG Audio
Format version : Version 1
Format profile : Layer 3
Mode : Joint stereo
Mode extension : MS Stereo
Codec ID : 55
Codec ID/Hint : MP3
Duration : 2h 11mn
Bit rate mode : Variable
Bit rate : 128 Kbps
Channel(s) : 2 channels
Sampling rate : 48.0 KHz
Compression mode : Lossy
Stream size : 117 MiB (11%)
Alignment : Aligned on interleaves
Interleave, duration : 24 ms (0.72 video frame)
Interleave, preload duration : 166 ms
Title : Bellator.Fighting.Championships.76.PDTV.x264-FTR.mp4_track_1_
Writing library : LAME3.99r
Encoding settings : -m j -V 4 -q 2 -lowpass 17 --abr 128

could only find a russion source,, shrunk and re-encoded to xvid.mp3 from the mp4 aac it originally was
enjoy

Bellator.Fighting.Championships.76.Xvid.Mp3.DoN,RSN.avi 1.071 GB
Bellator.Fighting.Championships.76.Xvid.Mp3.DoN,RSN.avi.txt 5.96 KB
Gathering some info...

Register and log in Isohunt and see no captcha anymore!

4000 symbols left
Hash 32B6DB501754B042B3B92C97B798682066E94B9E

Related torrents for "Bellator.Fighting.Championships.76.Xvid.Mp3.DoN,RSN"