imdb
rating

7.4
Looper

Looper (2012)

Action, Science Fiction, Thriller

Full description

Looper (2012)HDRip 720p XviD NEWSOURCE AixA

Size 1.283 GB   0 seeders     Added 2012-10-14 00:58:17

Stream torrent
Starting‥ You need BitLord! Get it from 1BitLord.com
To download or stream you need BitLord. Visit them at BitLord.com
Looper (2012)HDRip.720p.XviD.NEWSOURCE 26k-DuBois\r\nhttp://www.imdb.com/title/tt1276104/\r\n\r\nPlot:\r\n\r\nIn 2072, when the mob wants to get rid of someone, the target is sent 30 years into the past, where a hired gun \r\n\r\nawaits. Someone like Joe, who one day learns the mob wants to \'close the loop\' by transporting back Joe\'s future \r\n\r\nself. \r\n\r\n\r\n\r\nComplete name : Looper (2012)HDRip.720p.XviD.NEWSOURCE 26k-DuBois\r\nFormat : AVI\r\nFormat/Info : Audio Video Interleave\r\nFile size : 1.20 GiB\r\nDuration : 1h 49mn\r\nOverall bit rate : 1 691 Kbps\r\nWriting library : VirtualDub build 32842/release\r\n\r\nVideo\r\nID : 0\r\nFormat : MPEG-4 Visual\r\nFormat profile : Advanced Simple@L5\r\nFormat settings, BVOP : Yes\r\nFormat settings, QPel : No\r\nFormat settings, GMC : No warppoints\r\nFormat settings, Matrix : Default (H.263)\r\nMuxing mode : Packed bitstream\r\nCodec ID : XVID\r\nCodec ID/Hint : XviD\r\nDuration : 1h 49mn\r\nBit rate : 1 554 Kbps\r\nWidth : 720 pixels\r\nHeight : 480 pixels\r\nDisplay aspect ratio : 2.571\r\nFrame rate : 26.000 fps\r\nColor space : YUV\r\nChroma subsampling : 4:2:0\r\nBit depth : 8 bits\r\nScan type : Progressive\r\nCompression mode : Lossy\r\nBits/(Pixel*Frame) : 0.308\r\nStream size : 1.19 GiB (92%)\r\nWriting library : XviD 1.2.1 (UTC 2008-12-04)\r\n\r\nAudio\r\nID : 1\r\nFormat : MPEG Audio\r\nFormat version : Version 1\r\nFormat profile : Layer 3\r\nCodec ID : 55\r\nCodec ID/Hint : MP3\r\nDuration : 1h 49mn\r\nBit rate mode : Constant\r\nBit rate : 128 Kbps\r\nChannel(s) : 2 channels\r\nSampling rate : 44.1 KHz\r\nCompression mode : Lossy\r\nStream size : 100 MiB (8%)\r\nAlignment : Split accross interleaves\r\nInterleave, duration : 40 ms (1.00 video frame)\r\nInterleave, preload duration : 500 ms\r\nWriting library : LAME3.99r\r\nEncoding settings : -m s -V 4 -q 3 -lowpass 17 -b 128\r\n
Looper (2012)HDRip.720p.XviD.NEWSOURCE.AixA/Cover/Looperdisplay.png 603.788 KB
Looper (2012)HDRip.720p.XviD.NEWSOURCE.AixA/DuBois.nfo 1.748 KB
Looper (2012)HDRip.720p.XviD.NEWSOURCE.AixA/Looper (2012)HDRip.720p.XviD.NEWSOURCE 26k-DuBois.avi 1.259 GB
Gathering some info...

Register and log in Isohunt and see no captcha anymore!

4000 symbols left
Hash e43ef77a62e1a03cd3a7790b4a086bb231d6142a

Related torrents for "Looper (2012)HDRip 720p XviD NEWSOURCE AixA"

Torrent search:

hd 2012