imdb
rating

6.3
Taken 2

Taken 2 (2012)

Action, Crime, Drama, Thriller

Full description
quality   screener x264 dvd dvdrip hd bd

Taken 2 (2012) HDRip 720p XviD 26k-DuBois

Size 729.918 MB   0 seeders     Added 2012-10-14 01:35:04

Stream torrent
Starting‥ You need BitLord! Get it from BitLord.com
To download or stream you need BitLord. Visit them at BitLord.com
Taken 2 (2012) HDRip.720p.XviD 26k-DuBois\r\n\r\nhttp://www.imdb.com/title/tt1397280/\r\n\r\nPlot:\r\n\r\nIn Istanbul, retired CIA operative Bryan Mills and his wife are taken hostage by the father of a kidnapper Mills killed while rescuing his daughter.\r\n\r\nComplete name : Taken 2 (2012) HDRip.720p.XviD 26k-DuBois\r\nFormat : AVI\r\nFormat/Info : Audio Video Interleave\r\nFile size : 678 MB\r\nDuration : 1h 26mn\r\nOverall bit rate : 1 561 Kbps\r\nWriting application : VirtualDubMod 1.5.10.3 | www.virtualdub-fr.org || (build 2550/release)\r\nWriting library : VirtualDub build 32842/release\r\n\r\nVideo\r\nID : 0\r\nFormat : MPEG-4 Visual\r\nFormat profile : Advanced Simple@L5\r\nFormat settings, BVOP : Yes\r\nFormat settings, QPel : No\r\nFormat settings, GMC : No warppoints\r\nFormat settings, Matrix : Default (H.263)\r\nMuxing mode : Packed bitstream\r\nCodec ID : XVID\r\nCodec ID/Hint : XviD\r\nDuration : 1h 26mn\r\nBit rate : 1 424 Kbps\r\nWidth : 720 pixels\r\nHeight : 280 pixels\r\nDisplay aspect ratio : 2.571\r\nFrame rate : 25.000 fps\r\nColor space : YUV\r\nChroma subsampling : 4:2:0\r\nBit depth : 8 bits\r\nScan type : Progressive\r\nBits/(Pixel*Frame) : 0.282\r\nStream size : 876 MiB (91%)\r\nWriting library : XviD 1.2.1 (UTC 2008-12-04)\r\n\r\nAudio\r\nID : 1\r\nFormat : MPEG Audio\r\nFormat version : Version 1\r\nFormat profile : Layer 3\r\nMode : Joint stereo\r\nMode extension : MS Stereo\r\nCodec ID : 55\r\nCodec ID/Hint : MP3\r\nDuration : 1h 26mn\r\nBit rate mode : Constant\r\nBit rate : 128 Kbps\r\nChannel(s) : 2 channels\r\nSampling rate : 44.1 KHz\r\nCompression mode : Lossy\r\nStream size : 78.6 MiB (8%)\r\nAlignment : Split accross interleaves\r\nInterleave, duration : 40 ms (1.00 video frame)\r\nInterleave, preload duration : 501 ms\r\n
Taken 2 (2012) HDRip.720p.XviD 26k-DuBois/Cover/Cover.jpg 96.078 KB
Taken 2 (2012) HDRip.720p.XviD 26k-DuBois/DuBois.nfo 1.669 KB
Taken 2 (2012) HDRip.720p.XviD 26k-DuBois/Readme!.txt 183 B
Gathering some info...

Register and log in Isohunt and see no captcha anymore!

4000 symbols left
Hash ddba1c6937981d71feccbe05af6575a865d8bea0

Related torrents for "Taken 2 (2012) HDRip 720p XviD 26k-DuBois"

Torrent search:

hd 2012