Broken (2006)

Size 1.196 GB   0 seeders     Added 2012-10-14 04:00:14

Stream torrent
Starting‥ You need BitLord! Get it from BitLord.com
To download or stream you need BitLord. Visit them at BitLord.com
Broken (2006) [XviD - Italian Ac3] MIRCrew [TNT Village]


[color=#330000][IMG]image[/IMG]

*********************************************

[URL=http://www.imdb.com/title/tt0469045/][IMG]image[/IMG][/URL]

Broken (2006)

[IMG]image[/IMG]

[IMG]image[/IMG]


Titolo Originale: BROKEN
Regia: Alan White

Durata: h 1.33
Nazionalità: USA 2006
Genere: thriller

[IMG]image[/IMG]

[IMG]image[/IMG]

Heather Graham, Jeremy Sisto, Linda Hamilton

[IMG]image[/IMG]


[IMG]image[/IMG]

Il film è un episodio della vita di Hope, una giovane trasferitasi da Los Angeles nel Midwest. Dopo aver realizzato che la sua carriera di cantante non stava andando da nessuna parte, Hope trova conforto tra le braccia di Will, un avvenente, affascinante, cattivo ragazzo. Si innamorano pazzamente e ben presto diventano l'uno la passione dell'altra, perdendosi nella droga e l'uno nell'altra. Hope presto capisce che sta percorrendo una brutta strada...................

[IMG]image[/IMG]

[IMG]image[/IMG]




[IMG]image[/IMG]


General
Complete name : Broken (2006)\Broken CD2.avi
Format : AVI
Format/Info : Audio Video Interleave
File size : 588 MiB
Duration : 46mn 26s
Overall bit rate : 1 769 Kbps
Movie name : Broken
Director : puma68
Writing application : Lavf52.33.0
Writing library : VirtualDub build 32817/release
Original source form/Name : WIN_MAG_141

Video
ID : 0
Format : MPEG-4 Visual
Format profile : Simple@L3
Format settings, BVOP : No
Format settings, QPel : No
Format settings, GMC : No warppoints
Format settings, Matrix : Default (H.263)
Codec ID : XVID
Codec ID/Hint : XviD
Duration : 46mn 26s
Bit rate : 1 311 Kbps
Width : 640 pixels
Height : 360 pixels
Display aspect ratio : 16:9
Frame rate : 25.000 fps
Color space : YUV
Chroma subsampling : 4:2:0
Bit depth : 8 bits
Scan type : Progressive
Compression mode : Lossy
Bits/(Pixel*Frame) : 0.228
Stream size : 436 MiB (74%)
Writing library : XviD 1.2.1 (UTC 2008-12-04)

Audio
ID : 1
Format : AC-3
Format/Info : Audio Coding 3
Mode extension : CM (complete main)
Codec ID : 2000
Duration : 46mn 26s
Bit rate mode : Constant
Bit rate : 448 Kbps
Channel(s) : 6 channels
Channel positions : Front: L C R, Side: L R, LFE
Sampling rate : 48.0 KHz
Bit depth : 16 bits
Compression mode : Lossy
Stream size : 149 MiB (25%)
Alignment : Split accross interleaves
Interleave, duration : 40 ms (1.00 video frame)
Interleave, preload duration : 500 ms





[/color]
Broken CD1.avi 579.875 MB
Broken CD2.avi 616.301 MB
Gathering some info...

Register and log in Isohunt and see no captcha anymore!

4000 symbols left
Hash E086D341DD563E17C3388B09C6E76CF33FC6D4E2

Related torrents for "Broken (2006)"

Torrent search:

2006