Time Machine

Time Machine (1985)

Full description

Un Tuffo Nel Passato - Hot Tub Time Machine (2010) [XviD - Italian Ac3] MIRCrew [TNT Village]

Size 1.468 GB   27 seeders     Added 2012-10-14 04:40:14

Stream torrent
Starting‥ You need BitLord! Get it from 1BitLord.com
To download or stream you need BitLord. Visit them at BitLord.com
Un Tuffo Nel Passato - Hot Tub Time Machine (2010) [XviD - Italian Ac3] MIRCrew [TNT Village]


[b][color=red][IMG]image[/IMG]

*********************************************

[URL=http://www.imdb.it/title/tt1231587/][IMG]image[/IMG][/URL]

Un Tuffo Nel Passato - Hot Tub Time Machine (2010)

[IMG]image[/IMG]

[IMG]image[/IMG]


Titolo originale 	Hot Tub Time Machine
Lingua originale 	Inglese
Paese 	USA
Anno 	2010
Durata 	101 min

Genere 	commedia, fantascienza
Regia 	Steve Pink
Soggetto 	Josh Heald
Sceneggiatura 	Josh Heald, Sean Anders, John Morris
Produttore 	John Cusack, Grace Loh, Matt Moore, John Albanis (produttore associato)
Produttore esecutivo 	Mike Nelson
Casa di produzione 	Metro-Goldwyn-Mayer, United Artists, New Crime Productions
Fotografia 	Jack Green
Montaggio 	George Folsey Jr., James Thomas
Musiche 	Christophe Beck
Scenografia 	Bob Ziembicki
Costumi 	Dayna Pink

[IMG]image[/IMG]

[IMG]image[/IMG]

[IMG]image[/IMG]

 John Cusack: Adam
 Clark Duke: Jacob
 Craig Robinson: Nick
 Rob Corddry: Lou
 Sebastian Stan: Blaine
 Lyndsy Fonseca: Jenny
 Crispin Glover: Phil
 Chevy Chase: Tecnico
 Charlie McDermott: Chaz
 Lizzy Caplan: April
 Collette Wolfe: Kelly
 Aliu Oyofo: Nick da giovane
 Jake Rose: Jack da giovane
 Brook Bennett: Lou da giovane
 Jake Rose: Adam da giovane
 Crystal Lowe: Zoe
 Jessica Paré: Tara
 Kellee Stewart: Courtney
 Julia Maxwell: Lucy

Doppiatori italiani

 Alessio Cigliano: Adam
 Massimiliano Alto: Jacob
 Roberto Draghetti: Nick
 Pasquale Anselmo: Lou
 Marco Vivio: Blaine
 Valentina Mari Jenny
 Luigi Ferraro: Phil
 Dario Penne: Tecnico
 Fabrizio De Flaviis: Chaz
 Sabrina Duranti: April
 Domitilla D'Amico: Kelly
 Andrea Quartana: Lou da giovane
 Davide Quatraro: Adam da giovane
 Rachele Paolelli: Zoe
 Cristina Poccardi Tara

[IMG]image[/IMG]

[IMG]image[/IMG]


[IMG]image[/IMG]

Adam, Nick e Lou sono tre amici insoddisfatti delle loro vite, che si riuniscono quando Lou finisce in ospedale dopo aver inalato i gas di scarico della sua auto. Adam è single e vive col 

nipote Jacob, Nick è continuamente tradito dalla moglie Courtney, mentre Lou è un ubriacone. I tre, quattro con Jacob, partono quindi per il Kodak Valley Ski Resort, dove nel 1986 avevano 

passato le più belle vacanze invernali della loro giovinezza.........

[IMG]image[/IMG]

[IMG]image[/IMG]




[IMG]image[/IMG]

General
Complete name : Un Tuffo Nel Passato - Hot Tub Time Machine (2010)\Un Tuffo Nel Passato - Hot Tub Time Machine (2010).CD2.avi
Format : AVI
Format/Info : Audio Video Interleave
File size : 701 MiB
Duration : 51mn 32s
Overall bit rate : 1 900 Kbps
Writing application : VirtualDubMod 1.5.10.1 (build 2439/release)
Writing library : VirtualDubMod build 2439/release

Video
ID : 0
Format : MPEG-4 Visual
Format profile : Advanced Simple@L5
Format settings, BVOP : 1
Format settings, QPel : No
Format settings, GMC : No warppoints
Format settings, Matrix : Default (MPEG)
Codec ID : XVID
Codec ID/Hint : XviD
Duration : 51mn 32s
Bit rate : 1 251 Kbps
Width : 624 pixels
Height : 336 pixels
Display aspect ratio : 1.857
Frame rate : 23.976 fps
Color space : YUV
Chroma subsampling : 4:2:0
Bit depth : 8 bits
Scan type : Progressive
Compression mode : Lossy
Bits/(Pixel*Frame) : 0.249
Stream size : 461 MiB (66%)
Writing library : XviD 1.2.1 (UTC 2008-12-04)

Audio
ID : 1
Format : AC-3
Format/Info : Audio Coding 3
Mode extension : CM (complete main)
Codec ID : 2000
Duration : 51mn 30s
Bit rate mode : Constant
Bit rate : 640 Kbps
Channel(s) : 6 channels
Channel positions : Front: L C R, Side: L R, LFE
Sampling rate : 48.0 KHz
Bit depth : 16 bits
Compression mode : Lossy
Delay relative to video : 10ms
Stream size : 236 MiB (34%)
Alignment : Split accross interleaves
Interleave, duration : 42 ms (1.00 video frame)
Interleave, preload duration : 500 ms





[/color][/b]
Un Tuffo Nel Passato - Hot Tub Time Machine (2010).CD1.avi 733.477 MB
Un Tuffo Nel Passato - Hot Tub Time Machine (2010).CD2.avi 734.611 MB
Gathering some info...

Register and log in Isohunt and see no captcha anymore!

4000 symbols left
Hash 2C8F15F6C83644FB224DD309343460FA133A0BCF

Related torrents for "Un Tuffo Nel Passato - Hot Tub Time Machine (2010) [XviD - Italian Ac3] MIRCrew [TNT Village]"

Torrent search:

italian 2010