El.Naser.Salah.el.Dine.1963

Size 1.476 GB   0 seeders     Added 2012-10-14 08:53:32

Stream torrent
Starting‚Ä• You need BitLord! Get it from BitLord.com
To download or stream you need BitLord. Visit them at BitLord.com
Saladin, ruler of the kingdoms surrounding the Latin state of Jerusalem, is brought to attack the Christians in the Holy Land by the sacking of a convoy of Muslim pilgrims, a group which included his sister. In a short campaign against odds, Jerusalem is taken and almost the entire Middle East is in Muslim hands. Crusade is called again in Europe, and the combined forces of the French king, German emperor, and English king form the 3rd Crusade, under the leadership of Richard the Lionheart of England. Although Accre is taken by the Crusaders, Saladin succeeds in preventing the recapture of Jerusalem, and in the end negotiations between himself and Richard (who Saladin admires as the only honorable leader) leave the Holy Land in Moslem hands

iMDB: http://www.imdb.com/title/tt0057357/   
Posted by: hellalien [/center]

General   
Complete name                    : El.Naser.Salah.el.Dine.CD1.1963.Xvid-FL.avi
Format                           : CDXA/MPEG-PS
File size                        : 702 MiB    
Duration                         : 1h 10mn
Overall bit rate                 : 1 412 Kbps
Subtitles                        : English Hardsubbed

Video
ID                               : 224 (0xE0)
Format                           : MPEG Video
Format version                   : Version 1
Format settings, BVOP            : Yes
Format settings, Matrix          : Default
Duration                         : 1h 10mn
Bit rate mode                    : Constant
Bit rate                         : 1 150 Kbps
Width                            : 352 pixels
Height                           : 288 pixels
Display aspect ratio             : 16:9
Frame rate                       : 25.000 fps
Standard                         : PAL
Color space                      : YUV
Bit depth                        : 8 bits
Scan type                        : Progressive
Bits/(Pixel*Frame)               : 0.454
Stream size                      : 577 MiB (82%)

Audio
ID                               : 192 (0xC0)
Format                           : MPEG Audio
Format version                   : Version 1
Format profile                   : Layer 2
Duration                         : 1h 9mn
Bit rate mode                    : Constant
Bit rate                         : 224 Kbps
Channel(s)                       : 2 channels
Sampling rate                    : 44.1 KHz
Video delay                      : -40ms
Stream size                      : 111 MiB (16%)

General
Complete name                    : El.Naser.Salah.el.Dine.CD2.1963.Xvid-FL.avi
Format                           : CDXA/MPEG-PS
File size                        : 705 MiB
Duration                         : 1h 10mn
Overall bit rate                 : 1 412 Kbps
Subtitles                        : English Hardsubbed
		
El.Naser.Salah.el.Dine.CD2.1963.Xvid-FL.avi 739.655 MB
El.Naser.Salah.el.Dine.CD1.1963.Xvid-FL.avi 736.242 MB
Saladin.jpg 50.479 KB
Gathering some info...

Register and log in Isohunt and see no captcha anymore!

4000 symbols left
Hash AA3BB68B52EC9ADCE20C10DA48CB464CCA338F3D